<?xml version="1.0" standalone="no"?>
<!DOCTYPE svg PUBLIC "-//W3C//DTD SVG 1.1//EN" "http://www.w3.org/Graphics/SVG/1.1/DTD/svg11.dtd" >
<svg xmlns="http://www.w3.org/2000/svg">
<metadata>Generated by IcoMoon</metadata>
<defs>
<font id="element-pack" horiz-adv-x="1024">
<font-face units-per-em="1024" ascent="896" descent="-128" />
<missing-glyph horiz-adv-x="1024" />
<glyph unicode="&#x20;" horiz-adv-x="0" d="" />
<glyph unicode="&#xe604;" glyph-name="hexagon-radius" d="M555.898-81.99c-23.378-13.504-61.618-13.504-84.942 0l-344.758 199.072c-23.33 13.504-42.448 46.61-42.448 73.62l-0.096 398.094c0 27.006 19.118 60.116 42.496 73.62l344.758 199.072c23.378 13.504 61.616 13.504 84.99 0l344.804-199.072c23.33-13.504 42.496-46.61 42.496-73.62v-398.144c0-27.006-19.168-60.116-42.496-73.62l-344.804-199.024z" />
<glyph unicode="&#xe900;" glyph-name="moimir" d="M495.62 670.36c71.948 0 139.748-31.724 189.51-81.692v-0.208c0 23.844 16.172 41.882 38.566 41.882h5.598c35.040 0 42.090-33.174 42.090-43.542l0.208-371.97c-2.488-24.258 25.088-36.906 40.432-21.356 59.714 61.378 131.246 315.574-37.114 462.786-156.958 137.468-367.408 114.864-479.372 37.736-119.014-82.109-195.108-263.738-121.088-434.38 80.656-186.192 311.426-241.552 448.478-186.192 69.46 27.986 101.598-65.934 29.442-96.414-109.062-46.444-412.194-41.676-554.016 203.607-95.792 165.666-90.608 457.394 163.178 608.338 194.278 115.486 450.344 83.558 604.606-77.752 161.312-168.568 151.977-484.348-5.39-607.094-71.326-55.774-177.276-1.452-176.654 79.826l-0.83 26.54c-49.762-49.348-115.696-77.96-187.854-77.96-142.236 0-267.47 125.234-267.47 267.47 0.208 143.688 125.442 270.372 267.678 270.372v0 0 0zM674.762 410.354c-5.39 104.086-82.723 166.91-176.032 166.91h-3.524c-107.818 0-167.532-84.802-167.532-181.008 0-107.818 72.362-175.826 167.123-175.826 105.744 0 175.204 77.338 180.18 168.98l-0.208 20.942z" />
<glyph unicode="&#xe901;" glyph-name="search" d="M715.436 211.251c-1.524-1.164-3.002-2.464-4.435-3.898s-2.688-2.868-3.898-4.435c-56.359-54.343-133.011-87.718-217.504-87.718-86.599 0-164.954 35.033-221.76 91.84s-91.84 135.161-91.84 221.76 35.033 164.954 91.84 221.76 135.161 91.84 221.76 91.84 164.954-35.033 221.76-91.84 91.84-135.161 91.84-221.76c0-84.492-33.376-161.146-87.763-217.548zM969.273 12.473l-164.64 164.64c55.149 68.992 88.166 156.487 88.166 251.686 0 111.328-45.158 212.172-118.092 285.107s-173.779 118.092-285.107 118.092-212.172-45.158-285.107-118.092-118.092-173.779-118.092-285.107 45.158-212.172 118.092-285.107 173.779-118.092 285.107-118.092c95.2 0 182.695 33.017 251.686 88.166l164.64-164.64c17.517-17.517 45.876-17.517 63.348 0s17.517 45.876 0 63.348z" />
<glyph unicode="&#xe902;" glyph-name="element-pack" horiz-adv-x="927" d="M228.449-56.997h-139.264c-13.735 0-24.915 11.136-24.915 24.915v832.248c0 13.735 11.136 24.915 24.915 24.915h139.264c13.735 0 24.915-11.136 24.915-24.915v-832.248c-0.044-13.779-11.18-24.915-24.915-24.915zM862.848 800.126v-139.264c0-13.735-11.136-24.915-24.915-24.915h-484.047c-13.735 0-24.915 11.136-24.915 24.915v139.264c0 13.735 11.136 24.915 24.915 24.915h484.087c13.735 0 24.871-11.18 24.871-24.915zM862.848 453.652v-139.264c0-13.735-11.136-24.915-24.915-24.915h-484.047c-13.735 0-24.915 11.136-24.915 24.915v139.264c0 13.735 11.136 24.915 24.915 24.915h484.087c13.735-0.044 24.871-11.18 24.871-24.915zM862.848 107.138v-139.264c0-13.735-11.136-24.915-24.915-24.915h-484.047c-13.735 0-24.915 11.136-24.915 24.915v139.264c0 13.735 11.136 24.915 24.915 24.915h484.087c13.735 0 24.871-11.18 24.871-24.915zM698.713 825.041h139.264c13.735 0 24.915-11.136 24.915-24.915v-485.734c0-13.735-11.136-24.915-24.915-24.915h-139.264c-13.735 0-24.915 11.136-24.915 24.915v485.734c0 13.735 11.136 24.915 24.915 24.915z" />
<glyph unicode="&#xe903;" glyph-name="instapaper" d="M317.361 894h389.272v-96.646c0 0-27.786 1.972-71.313 2.712s-43.524-52.125-43.524-56.069c0-21.388-0.74-685.336-0.74-685.336s0-37.619 33.694-49.925h81.893v-90.738h-389.272v91.47l76.964-1.726c0 0 37.619 4.911 38.605 52.371 0.493 32.462-1.479 619.919-1.726 688.048-2.958 12.536-0.493 55.083-59.018 51.881-22.128-1.233-54.836-1.479-54.836-1.479v95.413z" />
<glyph unicode="&#xe904;" glyph-name="surfingbird" d="M852.126 605.245l-13.686-127.195-219.975-216.352h-116.73l-44.679-116.931v-161.409l-158.189 44.679 182.138 326.44-481.006 271.497 360.855-48.101-175.296 250.767 477.585-257.811 140.881 158.189h65.409l154.566-68.83z" />
<glyph unicode="&#xe905;" glyph-name="livejournal" horiz-adv-x="954" d="M508.8 825.2c-64 0-121.6-12.8-176-35.2l-102.4 96c-102.4-44.8-185.6-128-230.4-233.6l99.2-99.2c44.8 105.6 128 188.8 230.4 233.6v0l364.8-361.6c-102.4-44.8-185.6-128-230.4-233.6l-364.8 361.6c-22.4-54.4-38.4-115.2-38.4-176 0-246.4 201.6-448 448-448s448 201.6 448 448c-3.2 246.4-201.6 448-448 448zM585.6 166c25.6 60.8 73.6 108.8 134.4 134.4l35.2-169.6-169.6 35.2z" />
<glyph unicode="&#xe906;" glyph-name="meneame" d="M520.286 413.641c-21.724-13.491-43.479-21.135-66.37-25.94-33.574-7.055-67.253-7.055-100.795-0.62-28.979 5.552-52.753 21.198-71.932 42.995-38.011 43.195-65.402 92.016-73.509 149.91-11.114 79.324 16.698 143.58 77.547 193.999 43.658 36.171 95.506 53.699 150.573 63.478 86.401 15.32 168.112-1.483 247.194-35.687 40.598-17.57 79.839-38.348 121.773-52.848 9.253-3.207 18.622-6.099 28.359-7.476 17.57-2.46 31.965 3.491 43.542 16.55 15.12 17.087 20.441 37.643 20.399 60.008 4.248 0.242 5.131-3.081 6.488-5.583 12.902-23.7 9.222-62.258-8.286-82.331-18.317-21.030-42.68-24.773-68.567-21.776-29.421 3.396-57.38 11.987-84.203 24.762-50.398 24.026-101.521 46.202-156.282 58.599-68.557 15.53-136.567 12.797-203.116-9.306-96.894-32.186-147.828-128.46-121.447-227.268 15.215-57.022 47.285-101.931 97.378-133.686 21.671-13.743 45.561-18.054 70.765-17.728 25.509 0.368 50.366 5.342 75.276 10.052 4.311 0.831 8.517 1.903 15.215-0.105zM622.185-72.429c-4.648 1.556-13.333-3.638-14.71 2.85-1.356 6.34 7.707 8.422 12.975 10.631 32.133 13.364 64.53 26.129 96.674 39.473 20.010 8.307 39.536 17.697 57.506 29.957 6.172 4.216 11.85 9.011 16.855 14.595 7.949 8.864 9.863 18.212 5.226 29.852-24.447 61.218-51.744 121.341-73.173 183.779-17.276 50.345-30.977 101.395-34.625 154.936-4.29 63.163 17.581 112.278 72.090 146.083 25.688 15.962 53.279 27.854 80.901 39.799 34.152 14.763 67.958 29.904 97.914 52.785 44.835 34.194 59.556 80.050 55.718 134.149-1.724 24.352-5.794 48.274-11.356 72.006-0.641 2.692-4.301 6.666 0.547 8.748 4.364 1.893 6.687-1.504 8.57-4.963 14.595-26.529 26.003-54.057 29.568-84.539 6.887-58.641-18.769-103.361-59.346-142.056-25.888-24.689-57.674-39.967-89.029-55.897-28.317-14.395-57.548-27.128-84.224-44.615-29.084-19.053-53.184-42.259-61.186-77.684-6.519-28.811-1.23-57.316 4.574-85.528 12.765-62.027 37.885-119.806 62.69-177.628 12.828-29.831 26.497-59.314 36.697-90.154 16.456-49.725 2.723-88.072-41.534-116-31.828-20.062-67.505-28.842-104.097-34.678-21.408-3.396-43.037-4.458-65.224-5.899zM193.841 524.016c-0.789-5.173-3.722-9.106-6.53-13.112-47.317-67.516-87.852-138.701-118.418-215.46-21.293-53.489-26.403-108.114-12.344-164 17.402-69.135 63.436-111.826 128.334-136.924 47.054-18.191 96.106-26.939 145.873-32.796 69.156-8.181 138.586-13.638 207.889-20.367 6.666-0.641 13.259-2.482 19.768-4.237 3.133-0.841 7.182-2.124 6.751-6.361-0.526-4.91-5.068-3.438-8.139-3.691-44.867-3.649-89.797-5.678-134.811-6.351-63.331-0.946-126.883-1.388-189.341 9.137-101.479 17.097-180.13 67.611-218.299 167.291-20.462 53.489-17.886 109.207-1.409 163.527 24.72 81.49 62.122 156.272 123.013 217.51 15.772 15.846 33.542 29.473 50.934 43.479 1.693 1.335 3.26 3.47 6.73 2.355zM366.99 153.073c71.764 11.766 143.391 18.212 215.544 9.579 34.373-4.132 40.903-11.167 41.702-45.834 1.293-54.867-6.372-108.671-21.934-161.308-2.597-8.759-5.815-17.381-11.251-24.868-2.145-2.955-4.532-6.677-8.938-5.131-3.89 1.356-3.365 5.478-3.533 8.769-1.051 23.448 2.786 46.57 4.952 69.808 3.102 33.28 8.675 66.401 5.604 100.112-0.978 10.662-5.867 17.15-15.331 21.692-27.98 13.406-58 17.77-88.335 20.756-37.075 3.607-74.361 3.26-111.51 5.478-2.345 0.137-4.637 0.62-6.971 0.946z" />
<glyph unicode="&#xe907;" glyph-name="baidu" d="M184.32 378.352c111.36 23.936 96 157.12 92.8 186.24-5.44 44.8-58.24 123.2-129.792 116.928-90.112-8-103.168-138.24-103.168-138.24-12.288-60.16 29.056-188.8 140.16-164.928zM391.040 601.584c61.44 0 111.040 70.784 111.040 158.272 0 87.104-49.6 158.144-111.040 158.144s-111.36-70.656-111.36-158.080c0-87.552 49.92-158.336 111.36-158.336zM655.872 591.152c82.24-10.752 134.912 76.992 145.472 143.488 10.88 66.368-42.24 143.552-100.48 156.8-58.24 13.44-130.56-80-137.6-140.8-7.68-74.624 10.88-148.928 92.8-159.488zM981.824 479.472c0 31.808-26.24 127.68-124.16 127.68s-111.424-90.432-111.424-154.432c0-60.8 5.12-145.92 127.36-143.36 121.856 3.2 108.544 138.24 108.544 170.24zM857.6 200.56s-127.232 98.56-201.472 204.8c-100.8 156.8-243.84 92.992-291.584 13.44-47.744-80.256-121.984-130.56-132.48-144-10.688-13.12-153.6-90.24-121.856-231.232 31.744-140.8 143.168-138.24 143.168-138.24s81.92-7.936 177.28 13.312c95.36 21.248 177.28-5.12 177.28-5.12s222.080-74.688 283.52 68.928c60.8 143.68-34.56 218.24-34.56 218.24z" />
<glyph unicode="&#xe908;" glyph-name="plus-2" d="M460.8 844.8h51.2v-870.4h-51.2v870.4zM51.2 435.2h870.4v-51.2h-870.4v51.2z" />
<glyph unicode="&#xe909;" glyph-name="plus" d="M157.332 333.332h304v-304c0-27.968 22.7-50.668 50.668-50.668s50.668 22.7 50.668 50.668v304h304c27.968 0 50.668 22.7 50.668 50.668s-22.7 50.668-50.668 50.668h-304v304c0 27.968-22.7 50.668-50.668 50.668s-50.668-22.7-50.668-50.668v-304h-304c-27.968 0-50.668-22.7-50.668-50.668s22.7-50.668 50.668-50.668z" />
<glyph unicode="&#xe90a;" glyph-name="line" d="M826.24 497.52c14.848 0 26.88-12.16 26.88-26.88s-12.032-26.88-26.88-26.88h-74.88v-48h74.88c14.848 0 26.88-12.032 26.88-26.88 0-14.72-12.032-26.88-26.88-26.88h-101.76c-14.72 0-26.752 12.16-26.752 26.88v203.52c0 14.72 12.032 26.88 26.88 26.88h101.76c14.72 0 26.752-12.16 26.752-26.88 0-14.848-12.032-26.88-26.88-26.88h-74.88v-48h74.88zM661.76 368.88c0-11.52-7.424-21.76-18.432-25.472-2.752-0.896-5.632-1.28-8.512-1.28-8.96 0-16.64 3.84-21.76 10.688l-104.256 141.504v-125.44c0-14.72-11.904-26.88-26.88-26.88-14.72 0-26.688 12.16-26.688 26.88v203.52c0 11.52 7.36 21.76 18.304 25.408 2.56 0.96 5.76 1.408 8.32 1.408 8.32 0 16-4.48 21.12-10.88l105.024-142.016v126.080c0 14.72 12.032 26.88 26.88 26.88 14.72 0 26.88-12.16 26.88-26.88v-203.52zM416.768 368.88c0-14.72-12.032-26.88-26.88-26.88-14.72 0-26.752 12.16-26.752 26.88v203.52c0 14.72 12.032 26.88 26.88 26.88 14.72 0 26.752-12.16 26.752-26.88v-203.52zM311.552 342h-101.76c-14.72 0-26.88 12.16-26.88 26.88v203.52c0 14.72 12.16 26.88 26.88 26.88 14.848 0 26.88-12.16 26.88-26.88v-176.64h74.88c14.848 0 26.88-12.032 26.88-26.88 0-14.72-12.032-26.88-26.88-26.88zM1024 478.32c0 229.12-229.76 415.616-512 415.616s-512-186.496-512-415.616c0-205.312 182.144-377.344 428.16-409.92 16.64-3.584 39.36-11.008 45.12-25.216 5.12-12.8 3.392-32.64 1.664-46.080l-7.040-43.52c-1.92-12.8-10.24-50.56 44.8-27.52s295.040 174.080 402.56 297.6c73.536 80.576 108.736 163.136 108.736 254.656z" />
<glyph unicode="&#xe90b;" glyph-name="g2" d="M890.484 593.572h-152.978c4.156 24.032 18.946 37.436 48.99 52.686l28.194 14.33c50.376 25.876 77.178 54.996 77.178 102.602 0 30.040-11.554 53.612-34.66 70.712-22.646 17.1-50.376 25.418-82.264 25.418-25.424 0-48.53-6.466-69.792-19.87-20.796-12.944-36.512-29.58-46.214-50.376l44.368-44.376c17.1 34.666 42.058 51.766 74.874 51.766 27.728 0 44.828-14.33 44.828-34.2 0-16.64-8.318-30.504-40.206-46.68l-18.026-8.782c-39.288-19.87-66.556-42.518-82.272-68.402-15.71-25.418-23.566-58.232-23.566-97.52v-10.628h231.546v63.32zM870.034 457.126h-253.316l-126.66-219.378h253.318l126.658-219.378 126.658 219.378zM511.882 91.498c-161.286 0-292.502 131.216-292.502 292.502s131.216 292.504 292.502 292.504l100.142 209.558c-30.071 6.245-64.629 9.82-100.021 9.82-0.043 0-0.085 0-0.128 0h0.007c-282.704 0-511.882-229.178-511.882-511.882s229.178-511.882 511.882-511.882c112.714 0 216.898 36.46 301.462 98.188l-110.892 192.070c-51.232-44.118-117.814-70.878-190.57-70.878z" />
<glyph unicode="&#xe90c;" glyph-name="hexagon" d="M942.5 141.8v495.8l-429.4 248-429.4-248v-495.8l429.4-247.9z" />
<glyph unicode="&#xe90d;" glyph-name="hexagon-radius2" d="M819.8 65.6c67.2 38.8 122.1 133.9 122.1 211.5v213.8c0 77.5-54.9 172.7-122.1 211.5l-185.2 107c-67.2 38.8-177 38.8-244.2 0l-185.2-107c-67.2-38.8-122.1-134-122.1-211.5v-213.9c0-77.5 55-172.7 122.1-211.5l185.2-106.9c67.2-38.8 177.1-38.8 244.2 0l185.2 107z" />
<glyph unicode="&#xe90e;" glyph-name="bulge-rectangle" d="M929.2-30c-277.5-41.6-554.9-41.6-832.4 0-41.6 277.5-41.6 554.9 0 832.4 277.4 41.6 554.9 41.6 832.4 0 41.6-277.5 41.6-554.9 0-832.4z" />
<glyph unicode="&#xe90f;" glyph-name="hexagon-zigzag" d="M949.7 138.1c4.4 7.7 11.8 13 11.8 21.8 0 8.9-37.7 8.9-37.7 17.7 0 8.9 38.3 8.9 38.3 17.7 0 8.9-32.6 8.9-32.6 17.7 0 8.9-1 8.9-1 17.7 0 8.9-0.2 8.9-0.2 17.7 0 8.9 25.2 8.9 25.2 17.7 0 8.9-30.1 8.9-30.1 17.7 0 8.9 37.2 8.9 37.2 17.7s-33.6 8.9-33.6 17.7c0 8.9 9 8.9 9 17.7 0 8.9 24.6 8.9 24.6 17.7 0 8.9-22.7 8.9-22.7 17.7 0 8.9-13.7 8.9-13.7 17.7 0 8.9 7 8.9 7 17.7 0 8.9-5.3 8.9-5.3 17.7 0 8.9 16.6 8.9 16.6 17.7 0 8.9-8.5 8.9-8.5 17.7 0 8.9 27.8 8.9 27.8 17.7 0 8.9-6.9 8.9-6.9 17.7 0 8.9-28.1 8.9-28.1 17.7 0 8.9-2.9 8.9-2.9 17.7 0 8.9 18.9 8.9 18.9 17.7 0 8.9 0 8.9 0 17.7 0 8.9-3 8.9-3 17.7 0 8.9-14 8.9-14 17.7 0 8.9 33.1 8.9 33.1 17.7 0 8.9-1.7 16-6.1 23.7s-15.1 3.5-22.8 7.9c-7.7 4.4-6.8 5.9-14.5 10.4-7.7 4.4-7.6 4.6-15.2 9-7.7 4.4-20.3-17.4-27.9-13-7.7 4.4-6.9 5.7-14.6 10.1s1.7 20.7-6 25.1c-7.7 4.4-4.9 9.2-12.6 13.6s-21.7-19.9-29.4-15.5c-7.7 4.4-7.1 5.5-14.7 9.9-7.7 4.4 7.8 31.2 0.1 35.7-7.7 4.4-14.8-7.9-22.5-3.5s0.4 18.4-7.3 22.9c-7.7 4.4-9.3 1.5-17 6-7.7 4.4-4.2 10.4-11.9 14.9-7.7 4.4-17.4-12.4-25.1-8s-13.7-6-21.3-1.5c-7.7 4.4-9.8 0.8-17.4 5.2-7.7 4.4 9.2 33.6 1.5 38.1-7.7 4.4-22.4-21.1-30.1-16.7s-1.4 15.2-9.1 19.6c-7.7 4.4-7.8 4.1-15.5 8.6-7.7 4.4 2.1 21.3-5.6 25.8-7.7 4.4-26.2-27.7-33.9-23.3s-3.7 11.2-11.4 15.7c-7.7 4.4 3.3 23.5-4.3 27.9-7.7 4.4-11.7-2.5-19.4 1.9s-11.8-2.7-19.4 1.8c-7.7 4.4-3.8 29-12.7 29s0.9-34.8-6.8-39.2c-7.7-4.4-10.1-0.3-17.7-4.7-7.7-4.4-16.9 11.5-24.5 7-7.7-4.4-9.4-1.5-17-5.9-7.7-4.4-0.6-16.6-8.3-21.1-7.7-4.4-15.3 8.7-22.9 4.3-7.7-4.4-4.5-10-12.1-14.4-7.7-4.4-2.7-13-10.4-17.5-7.7-4.4-18.9 15-26.5 10.5-7.7-4.4 5-26.4-2.7-30.8s-2.5-13.4-10.2-17.8c-7.7-4.4-10-0.5-17.6-4.9-7.7-4.4-13 4.8-20.6 0.3-7.7-4.4-17.2 12.1-24.9 7.7s-1.8-14.6-9.5-19c-7.7-4.4 2.6-22.1-5.1-26.6-7.7-4.4-20.2 17.3-27.9 12.9s-12.7 4.4-20.4-0.1c-7.7-4.4-0.3-17.2-8-21.6s-13.2 5.1-20.9 0.7c-7.7-4.4 3.2-23.2-4.5-27.6s-16.9 11.5-24.6 7.1c-7.7-4.4-7.8-4.2-15.5-8.6s-8.2-3.5-15.9-7.9c-7.7-4.4-6.7-6.1-14.4-10.5s7.6-30.9-0.1-35.3c-7.7-4.4-15.6 9.3-23.3 4.8s-11.5 1.3-15.9-6.3c-4.4-7.7-4.1-8.1-4.1-16.9 0-8.9-3.8-8.9-3.8-17.7 0-8.9 10.1-8.9 10.1-17.7 0-8.9 0.3-8.9 0.3-17.7 0-8.9-15-8.9-15-17.7 0-8.9 30.4-8.9 30.4-17.7 0-8.9-6.8-8.9-6.8-17.7 0-8.9-7.9-8.9-7.9-17.7 0-8.9-18.7-8.9-18.7-17.7 0-8.9 3.2-8.9 3.2-17.7 0-8.9 4.9-8.9 4.9-17.7 0-8.9-12.8-8.9-12.8-17.7 0-8.9 9.2-8.9 9.2-17.7 0-8.9 24.6-8.9 24.6-17.7 0-8.9-30-8.9-30-17.7 0-8.9 0.7-8.9 0.7-17.7 0-8.9-2.3-8.9-2.3-17.7 0-8.9 33.5-8.9 33.5-17.7 0-8.9-15.5-8.9-15.5-17.7 0-8.9 7.2-8.9 7.2-17.7 0-8.9-6.7-8.9-6.7-17.7 0-8.9-3.6-8.9-3.6-17.7 0-8.9 0.8-8.9 0.8-17.7 0-8.9 1.1-8.9 1.1-17.7 0-8.9-5.2-8.9-5.2-17.7 0-8.9-3.4-8.9-3.4-17.7 0-8.9 3.9-8.9 3.9-17.7s-8.4-15-4-22.7c4.4-7.7 20.6 7.9 28.2 3.5 7.7-4.4 13 4.9 20.7 0.5s-2.3-21.7 5.3-26.2c7.7-4.4 1.8-14.5 9.5-19 7.7-4.4 14.9 8.1 22.5 3.6 7.7-4.4 8.8-2.4 16.5-6.8s13.3 5.4 21 0.9c7.7-4.4 1.6-15 9.2-19.4 7.7-4.4 9.2-1.7 16.9-6.1s12.7 4.3 20.4-0.1c7.7-4.4 4.3-10.2 12-14.6s-0.4-18.3 7.3-22.8c7.7-4.4 14.3 7.1 22 2.7s1.7-14.8 9.3-19.3c7.7-4.4 19.5 16.1 27.2 11.7s-7.7-31 0-35.5c7.7-4.4 3.9-11 11.5-15.4 7.7-4.4 21.1 18.9 28.8 14.5s11.5 2.2 19.2-2.2c7.7-4.4 0.8-16.3 8.5-20.7s-0.3-18.2 7.4-22.6c7.7-4.4 8-3.9 15.6-8.3 7.7-4.4 9.8-0.8 17.4-5.2 7.7-4.4 10.1-0.2 17.8-4.6s3.3-12 11-16.4c7.7-4.4 17.6 12.7 25.2 8.3 7.7-4.4-3.8-24.4 3.8-28.8s14.8 8.3 23.6 8.3c8.9 0-2 18.4 5.7 22.8s16.1-10.1 23.7-5.7c7.7 4.4 8.5 3 16.1 7.4 7.7 4.4 5.4 8.4 13 12.9 7.7 4.4 19.4-15.9 27.1-11.5s4.5 9.9 12.2 14.3c7.7 4.4 3.8 11.1 11.5 15.5s6.2 6.9 13.9 11.4c7.7 4.4 16.6-11 24.2-6.6 7.7 4.4-0.7 18.9 7 23.4 7.7 4.4 1.8 14.5 9.5 19 7.7 4.4 17.7-13 25.4-8.6s4 10.9 11.6 15.3c7.7 4.4-1.4 20.2 6.2 24.6 7.7 4.4 13.3-5.4 21-0.9 7.7 4.4 7.6 4.5 15.3 9 7.7 4.4 11.5-2.2 19.2 2.2s13.8-6.1 21.4-1.7c7.7 4.4-5.6 27.4 2.1 31.8s6 7.3 13.7 11.7c7.7 4.4 7.8 4.3 15.4 8.7 7.7 4.4 9.6 1.1 17.3 5.5s10.2 0.1 17.8 4.6c7.7 4.4 3.3 11.9 11 16.3s6 7.3 13.7 11.7c7.7 4.4 13.1-4.9 20.7-0.5 7.7 4.4 8.8 6.9 17.5 8.4 12.5 2.1 19.5-7.7 24 0z" />
<glyph unicode="&#xe910;" glyph-name="arrow-down-1" d="M1024 544l-192 192-320-320-320 320-192-192 512-512z" />
<glyph unicode="&#xe911;" glyph-name="arrow-down-2" d="M1024 544l-128 128-384-384-384 384-128-128 512-512 512 512z" />
<glyph unicode="&#xe912;" glyph-name="arrow-down-3" d="M1024 544l-96 96-416-416-416 416-96-96 512-512 512 512z" />
<glyph unicode="&#xe913;" glyph-name="arrow-down-4" d="M1024 544l-64 64-448-448-448 448-64-64 512-512 512 512z" />
<glyph unicode="&#xe914;" glyph-name="aside" d="M917.806 101.076c-22.212-30.292-53.174-65.7-87.178-99.704s-69.412-64.964-99.704-87.178c-51.574-37.82-76.592-42.194-90.924-42.194h-496c-44.112 0-80 35.888-80 80v864c0 44.112 35.888 80 80 80h736c44.112 0 80-35.888 80-80v-624c0-14.332-4.372-39.35-42.194-90.924zM785.374 46.626c30.7 30.7 54.8 58.398 72.58 81.374h-153.954v-153.946c22.984 17.78 50.678 41.878 81.374 72.572zM896 816c0 8.672-7.328 16-16 16h-736c-8.672 0-16-7.328-16-16v-864c0-8.672 7.328-16 16-16 0 0 495.956-0.002 496 0v224c0 17.672 14.326 32 32 32h224v624zM736 640h-448c-17.672 0-32-14.326-32-32s14.328-32 32-32h448c17.674 0 32 14.326 32 32s-14.326 32-32 32zM736 496h-448c-17.672 0-32-14.326-32-32s14.328-32 32-32h448c17.674 0 32 14.326 32 32s-14.326 32-32 32zM736 352h-448c-17.672 0-32-14.326-32-32s14.328-32 32-32h448c17.674 0 32 14.326 32 32s-14.326 32-32 32z" />
<glyph unicode="&#xe915;" glyph-name="arrow-down-5" d="M224 512l288-288 288 288h-576z" />
<glyph unicode="&#xe916;" glyph-name="arrow-down-7" d="M160 256l352-352 352 352h-288v576h-128v-576z" />
<glyph unicode="&#xe917;" glyph-name="arrow-left-1" d="M672-128l192 192-320 320 320 320-192 192-512-512z" />
<glyph unicode="&#xe918;" glyph-name="arrow-left-2" d="M672-128l128 128-384 384 384 384-128 128-512-512 512-512z" />
<glyph unicode="&#xe919;" glyph-name="arrow-left-3" d="M672-128l96 96-416 416 416 416-96 96-512-512 512-512z" />
<glyph unicode="&#xe91a;" glyph-name="arrow-left-4" d="M672-128l64 64-448 448 448 448-64 64-512-512 512-512z" />
<glyph unicode="&#xe91b;" glyph-name="arrow-left-18" d="M640 672l-288-288 288-288v576z" />
<glyph unicode="&#xe91c;" glyph-name="arrow-left-17" d="M32 384l480-480v288h512v384h-512v288z" />
<glyph unicode="&#xe91d;" glyph-name="arrow-left-14" d="M384 736l-352-352 352-352v288h576v128h-576z" />
<glyph unicode="&#xe91e;" glyph-name="arrow-left-8" d="M402.752 18.752l-320 320c-25.024 24.96-25.024 65.536 0 90.496l320 320c25.024 25.024 65.536 25.024 90.496 0s25.024-65.536 0-90.496l-210.752-210.752h613.504c35.328 0 64-28.672 64-64s-28.672-64-64-64h-613.504l210.752-210.752c12.48-12.48 18.752-28.864 18.752-45.248s-6.272-32.768-18.752-45.248c-25.024-25.024-65.536-25.024-90.496 0z" />
<glyph unicode="&#xe91f;" glyph-name="arrow-left-9" d="M0 384l512-512v320h512v384h-512v320l-512-512zM448 512h512v-256h-512v-229.504l-357.504 357.504 357.504 357.504v-229.504z" />
<glyph unicode="&#xe920;" glyph-name="arrow-left-10" d="M0 384l512-512v320h512v384h-512v320l-512-512zM152 445.504l16 16v-155.008l-16 16v123.008zM136 338.496l-16 16v59.008l16 16v-91.008zM184 477.504l16 16v-219.008l-16 16v187.008zM216 509.504l16 16v-283.008l-16 16v251.008zM248 541.504l16 16v-347.008l-16 16v315.008zM280 573.504l16 16v-411.008l-16 16v379.008zM312 605.504l16 16v-475.008l-16 16v443.008zM344 637.504l16 16v-539.008l-16 16v507.008zM376 669.504l16 16v-603.008l-16 16v571.008zM408 701.504l16 16v-667.008l-16 16v635.008zM104 397.504v-27.008l-13.504 13.504 13.504 13.504zM472 256v256h16v-256h-16zM504 256v256h16v-256h-16zM536 256v256h16v-256h-16zM568 256v256h16v-256h-16zM600 256v256h16v-256h-16zM632 256v256h16v-256h-16zM664 256v256h16v-256h-16zM696 256v256h16v-256h-16zM728 256v256h16v-256h-16zM760 256v256h16v-256h-16zM792 256v256h16v-256h-16zM824 256v256h16v-256h-16zM856 256v256h16v-256h-16zM888 256v256h16v-256h-16zM920 256v256h16v-256h-16zM960 256h-8v256h8v-256zM448 512h8v-256h-8v-229.504l-8 8v699.008l8 8v-229.504z" />
<glyph unicode="&#xe921;" glyph-name="arrow-left-11" d="M0 352l384 384v-256l640-96v-64l-640-96v-256z" />
<glyph unicode="&#xe922;" glyph-name="arrow-left-13" d="M448 896l-448-512 448-512v372.48l576-116.48v512l-576-116.48v372.48zM960 564.48v-360.896l-576 116.48v-277.696l-298.944 341.632 298.944 341.696v-277.696l576 116.48z" />
<glyph unicode="&#xe923;" glyph-name="arrow-left-15" d="M768 896l-512-512 512-512-256 512z" />
<glyph unicode="&#xe924;" glyph-name="arrow-left-16" d="M960 576h64v-384h-64zM832 576h64v-384h-64zM704 576h64v-384h-64zM0 384l448 448v-256h192v-384h-192v-256z" />
<glyph unicode="&#xe925;" glyph-name="arrow-right-1" d="M352 896l-192-192 320-320-320-320 192-192 512 512z" />
<glyph unicode="&#xe926;" glyph-name="arrow-right-2" d="M352 896l-128-128 384-384-384-384 128-128 512 512-512 512z" />
<glyph unicode="&#xe927;" glyph-name="arrow-right-3" d="M352 896l-96-96 416-416-416-416 96-96 512 512-512 512z" />
<glyph unicode="&#xe928;" glyph-name="arrow-right-4" d="M352 896l-64-64 448-448-448-448 64-64 512 512-512 512z" />
<glyph unicode="&#xe929;" glyph-name="arrow-right-18" d="M384 96l288 288-288 288v-576z" />
<glyph unicode="&#xe92a;" glyph-name="arrow-right-17" d="M992 384l-480 480v-288h-512v-384h512v-288z" />
<glyph unicode="&#xe92b;" glyph-name="arrow-right-14" d="M640 32l352 352-352 352v-288h-576v-128h576z" />
<glyph unicode="&#xe92c;" glyph-name="arrow-right-8" d="M621.248 18.752l320 320c25.024 24.96 25.024 65.536 0 90.496l-320 320c-25.024 25.024-65.536 25.024-90.496 0s-25.024-65.536 0-90.496l210.752-210.752h-613.504c-35.328 0-64-28.672-64-64s28.672-64 64-64h613.504l-210.752-210.752c-12.48-12.48-18.752-28.864-18.752-45.248s6.272-32.768 18.752-45.248c25.024-25.024 65.536-25.024 90.496 0z" />
<glyph unicode="&#xe92d;" glyph-name="arrow-right-9" d="M1024 384l-512 512v-320h-512v-384h512v-320l512 512zM576 256h-512v256h512v229.504l357.504-357.504-357.504-357.504v229.504z" />
<glyph unicode="&#xe92e;" glyph-name="arrow-right-10" d="M1024 384l-512 512v-320h-512v-384h512v-320l512 512zM872 322.496l-16-16v155.008l16-16v-123.008zM888 429.504l16-16v-59.008l-16-16v91.008zM840 290.496l-16-16v219.008l16-16v-187.008zM808 258.496l-16-16v283.008l16-16v-251.008zM776 226.496l-16-16v347.008l16-16v-315.008zM744 194.496l-16-16v411.008l16-16v-379.008zM712 162.496l-16-16v475.008l16-16v-443.008zM680 130.496l-16-16v539.008l16-16v-507.008zM648 98.496l-16-16v603.008l16-16v-571.008zM616 66.496l-16-16v667.008l16-16v-635.008zM920 370.496v27.008l13.504-13.504-13.504-13.504zM552 512v-256h-16v256h16zM520 512v-256h-16v256h16zM488 512v-256h-16v256h16zM456 512v-256h-16v256h16zM424 512v-256h-16v256h16zM392 512v-256h-16v256h16zM360 512v-256h-16v256h16zM328 512v-256h-16v256h16zM296 512v-256h-16v256h16zM264 512v-256h-16v256h16zM232 512v-256h-16v256h16zM200 512v-256h-16v256h16zM168 512v-256h-16v256h16zM136 512v-256h-16v256h16zM104 512v-256h-16v256h16zM64 512h8v-256h-8v256zM576 256h-8v256h8v229.504l8-8v-699.008l-8-8v229.504z" />
<glyph unicode="&#xe92f;" glyph-name="arrow-right-11" d="M1024 352l-384 384v-256l-640-96v-64l640-96v-256z" />
<glyph unicode="&#xe930;" glyph-name="arrow-right-13" d="M576-128l448 512-448 512v-372.48l-576 116.48v-512l576 116.48v-372.48zM64 203.52v360.896l576-116.48v277.696l298.944-341.696-298.944-341.696v277.696l-576-116.48z" />
<glyph unicode="&#xe931;" glyph-name="arrow-right-15" d="M256-128l512 512-512 512 256-512z" />
<glyph unicode="&#xe932;" glyph-name="arrow-right-16" d="M0 576h64v-384h-64zM128 576h64v-384h-64zM256 576h64v-384h-64zM1024 384l-448 448v-256h-192v-384h192v-256z" />
<glyph unicode="&#xe933;" glyph-name="arrow-up-1" d="M0 224l192-192 320 320 320-320 192 192-512 512z" />
<glyph unicode="&#xe934;" glyph-name="arrow-up-2" d="M0 224l128-128 384 384 384-384 128 128-512 512-512-512z" />
<glyph unicode="&#xe935;" glyph-name="arrow-up-3" d="M0 224l96-96 416 416 416-416 96 96-512 512-512-512z" />
<glyph unicode="&#xe936;" glyph-name="arrow-up-4" d="M0 224l64-64 448 448 448-448 64 64-512 512-512-512z" />
<glyph unicode="&#xe937;" glyph-name="arrow-up-5" d="M800 256l-288 288-288-288h576z" />
<glyph unicode="&#xe938;" glyph-name="arrow-up-7" d="M864 512l-352 352-352-352h288v-576h128v576z" />
<glyph unicode="&#xe939;" glyph-name="arrow-up-8" d="M877.248 493.248l-320 320c-24.96 25.024-65.536 25.024-90.496 0l-320-320c-25.024-25.024-25.024-65.536 0-90.496s65.536-25.024 90.496 0l210.752 210.752v-613.504c0-35.328 28.672-64 64-64s64 28.672 64 64v613.504l210.752-210.752c12.48-12.48 28.864-18.752 45.248-18.752s32.768 6.272 45.248 18.752c25.024 25.024 25.024 65.536 0 90.496z" />
<glyph unicode="&#xe93a;" glyph-name="arrow-left-circle-4" d="M512-128c282.752 0 512 229.248 512 512s-229.248 512-512 512-512-229.248-512-512 229.248-512 512-512zM512 800c229.76 0 416-186.24 416-416s-186.24-416-416-416-416 186.24-416 416 186.24 416 416 416zM669.248 578.752l-90.496 90.496-285.248-285.248 285.248-285.248 90.496 90.496-194.752 194.752z" />
<glyph unicode="&#xe93b;" glyph-name="arrow-left-circle-1" d="M512-128c282.752 0 512 229.248 512 512s-229.248 512-512 512c-282.752 0-512-229.248-512-512s229.248-512 512-512zM512 800c229.76 0 416-186.24 416-416s-186.24-416-416-416c-229.76 0-416 186.24-416 416s186.24 416 416 416zM480 640l-256-256 256-256 96 96-96 96h288v128h-288l96 96z" />
<glyph unicode="&#xe93c;" glyph-name="arrow-left-circle-2" d="M512 896c282.752 0 512-229.248 512-512s-229.248-512-512-512-512 229.248-512 512 229.248 512 512 512zM448 160v160h320v128h-320v160l-224-224 224-224z" />
<glyph unicode="&#xe93d;" glyph-name="arrow-left-circle-3" d="M512 896c282.752 0 512-229.248 512-512s-229.248-512-512-512-512 229.248-512 512 229.248 512 512 512zM512 0c212.096 0 384 171.904 384 384s-171.904 384-384 384c-212.096 0-384-171.904-384-384s171.904-384 384-384zM448 160v160h320v128h-320v160l-224-224z" />
<glyph unicode="&#xe93e;" glyph-name="arrow-right-circle-4" d="M512 896c-282.752 0-512-229.248-512-512s229.248-512 512-512 512 229.248 512 512-229.248 512-512 512zM512-32c-229.76 0-416 186.24-416 416s186.24 416 416 416 416-186.24 416-416-186.24-416-416-416zM354.752 189.248l90.496-90.496 285.248 285.248-285.248 285.248-90.496-90.496 194.752-194.752z" />
<glyph unicode="&#xe93f;" glyph-name="arrow-right-circle-1" d="M512 896c-282.752 0-512-229.248-512-512s229.248-512 512-512 512 229.248 512 512-229.248 512-512 512zM512-32c-229.76 0-416 186.24-416 416s186.24 416 416 416 416-186.24 416-416-186.24-416-416-416zM544 128l256 256-256 256-96-96 96-96h-288v-128h288l-96-96z" />
<glyph unicode="&#xe940;" glyph-name="arrow-right-circle-2" d="M512 896c-282.752 0-512-229.248-512-512s229.248-512 512-512 512 229.248 512 512-229.248 512-512 512zM576 160v160h-320v128h320v160l224-224-224-224z" />
<glyph unicode="&#xe941;" glyph-name="arrow-right-circle-3" d="M512 896c-282.752 0-512-229.248-512-512s229.248-512 512-512 512 229.248 512 512-229.248 512-512 512zM512 0c-212.096 0-384 171.904-384 384s171.904 384 384 384c212.096 0 384-171.904 384-384s-171.904-384-384-384zM576 160v160h-320v128h320v160l224-224z" />
<glyph unicode="&#xe942;" glyph-name="arrow-right-square-1" d="M1024 896h-1024v-1024h1024v1024zM128 0v768h768v-768h-768zM512 672l288-288-288-288v224h-320v128h320z" />
<glyph unicode="&#xe943;" glyph-name="arrow-left-5" d="M716.8-128c6.554 0 13.107 2.509 18.125 7.475 9.984 9.984 9.984 26.214 0 36.198l-442.675 442.675 442.675 442.675c9.984 9.984 9.984 26.214 0 36.198s-26.214 9.984-36.198 0l-460.8-460.8c-9.984-9.984-9.984-26.214 0-36.198l460.8-460.8c5.018-5.018 11.571-7.475 18.125-7.475z" />
<glyph unicode="&#xe944;" glyph-name="arrow-right-5" d="M256-128c-6.554 0-13.107 2.509-18.125 7.475-9.984 9.984-9.984 26.214 0 36.198l442.675 442.675-442.675 442.675c-9.984 9.984-9.984 26.214 0 36.198s26.214 9.984 36.198 0l460.8-460.8c9.984-9.984 9.984-26.214 0-36.198l-460.8-460.8c-5.018-5.018-11.571-7.475-18.125-7.475z" />
<glyph unicode="&#xe945;" glyph-name="arrow-left-6" d="M33.075 376.525l307.2 307.2c9.984 9.984 26.214 9.984 36.198 0s9.984-26.214 0-36.198l-263.475-263.475h834.202c14.131 0 25.6-11.469 25.6-25.6s-11.469-25.6-25.6-25.6h-834.202l263.475-263.475c9.984-9.984 9.984-26.214 0-36.198-5.018-5.018-11.571-7.475-18.125-7.475s-13.107 2.509-18.125 7.475l-307.2 307.2c-9.984 9.984-9.984 26.214 0 36.198z" />
<glyph unicode="&#xe946;" glyph-name="arrow-right-6" d="M990.925 376.525l-307.2 307.2c-9.984 9.984-26.214 9.984-36.198 0s-9.984-26.214 0-36.198l263.475-263.475h-834.202c-14.131 0-25.6-11.469-25.6-25.6s11.469-25.6 25.6-25.6h834.202l-263.475-263.475c-9.984-9.984-9.984-26.214 0-36.198 5.018-5.018 11.571-7.475 18.125-7.475s13.107 2.509 18.125 7.475l307.2 307.2c9.984 9.984 9.984 26.214 0 36.198z" />
<glyph unicode="&#xe947;" glyph-name="arrow-down-8" d="M877.248 274.752l-320-320c-24.96-25.024-65.536-25.024-90.496 0l-320 320c-25.024 25.024-25.024 65.536 0 90.496s65.536 25.024 90.496 0l210.752-210.752v613.504c0 35.328 28.672 64 64 64s64-28.672 64-64v-613.504l210.752 210.752c12.48 12.48 28.864 18.752 45.248 18.752s32.768-6.272 45.248-18.752c25.024-25.024 25.024-65.536 0-90.496z" />
<glyph unicode="&#xe948;" glyph-name="arrow-left-square-1" d="M0-128h1024v1024h-1024v-1024zM896 768v-768h-768v768h768zM512 96l-288 288 288 288v-224h320v-128h-320z" />
<glyph unicode="&#xe949;" glyph-name="arrow-left-7" d="M30.72 378.88l215.040 209.92c10.24 10.24 25.6 10.24 35.84 0s10.24-25.6 0-35.84l-168.96-168.96h834.56c15.36 0 25.6-10.24 25.6-25.6s-10.24-25.6-25.6-25.6h-834.56l168.96-168.96c10.24-10.24 10.24-25.6 0-35.84-5.12-5.12-10.24-5.12-20.48-5.12s-15.36 0-20.48 5.12l-209.92 209.92c-5.12 10.24-5.12 30.72 0 40.96v0z" />
<glyph unicode="&#xe94a;" glyph-name="arrow-right-7" d="M967.68 378.88c10.24-10.24 10.24-25.6 0-35.84l-215.040-215.040c-5.12-5.12-10.24-5.12-20.48-5.12s-15.36 0-20.48 5.12c-10.24 10.24-10.24 25.6 0 35.84l168.96 168.96h-829.44c-15.36 0-25.6 10.24-25.6 25.6s10.24 25.6 25.6 25.6h834.56l-168.96 168.96c-10.24 10.24-10.24 25.6 0 35.84s25.6 10.24 35.84 0l215.040-209.92z" />
<glyph unicode="&#xe94b;" glyph-name="arrow-left-12" d="M522.24 566.272c0-19.456 15.36-34.816 34.816-34.816s34.816 15.36 34.816 34.816c0 19.456-15.36 34.816-34.816 34.816s-34.816-15.36-34.816-34.816zM522.24 384c0-19.456 15.36-34.816 34.816-34.816s34.816 15.36 34.816 34.816c0 19.456-15.36 34.816-34.816 34.816s-34.816-15.36-34.816-34.816zM522.24 293.888c0-19.456 15.36-34.816 34.816-34.816s34.816 15.36 34.816 34.816c0 18.432-15.36 33.792-34.816 33.792s-34.816-15.36-34.816-33.792zM522.24 201.728c0-18.432 15.36-33.792 34.816-33.792s34.816 15.36 34.816 33.792c0 19.456-15.36 34.816-34.816 34.816s-34.816-15.36-34.816-34.816zM432.128 293.888c0-19.456 15.36-34.816 33.792-34.816 19.456 0 34.816 15.36 34.816 34.816 0 18.432-15.36 33.792-34.816 33.792-18.432 0-33.792-15.36-33.792-33.792zM432.128 475.136c0-18.432 15.36-34.816 33.792-34.816 19.456 0 34.816 16.384 34.816 34.816s-15.36 33.792-34.816 33.792c-18.432 0-33.792-15.36-33.792-33.792zM613.376 111.616c0-19.456 15.36-34.816 34.816-34.816 18.432 0 34.816 15.36 34.816 34.816s-16.384 34.816-34.816 34.816c-19.456 0-34.816-15.36-34.816-34.816zM340.992 384c0-19.456 15.36-34.816 34.816-34.816 18.432 0 34.816 15.36 34.816 34.816s-16.384 34.816-34.816 34.816c-19.456 0-34.816-15.36-34.816-34.816zM432.128 384c0-19.456 15.36-34.816 33.792-34.816 19.456 0 34.816 15.36 34.816 34.816s-15.36 34.816-34.816 34.816c-18.432 0-33.792-15.36-33.792-34.816zM522.24 475.136c0-18.432 15.36-34.816 34.816-34.816s34.816 16.384 34.816 34.816c0 18.432-15.36 33.792-34.816 33.792s-34.816-15.36-34.816-33.792zM613.376 656.384c0-18.432 15.36-34.816 34.816-34.816 18.432 0 34.816 15.36 34.816 34.816s-16.384 34.816-34.816 34.816c-19.456 0-34.816-15.36-34.816-34.816zM613.376 201.728c0-18.432 15.36-33.792 34.816-33.792 18.432 0 34.816 15.36 34.816 33.792 0 19.456-16.384 34.816-34.816 34.816-19.456 0-34.816-15.36-34.816-34.816zM613.376 566.272c0-19.456 15.36-34.816 34.816-34.816 18.432 0 34.816 15.36 34.816 34.816s-16.384 34.816-34.816 34.816c-19.456 0-34.816-15.36-34.816-34.816zM613.376 384c0-19.456 15.36-34.816 34.816-34.816 18.432 0 34.816 15.36 34.816 34.816s-16.384 34.816-34.816 34.816c-19.456 0-34.816-15.36-34.816-34.816zM613.376 475.136c0-18.432 15.36-34.816 34.816-34.816 18.432 0 34.816 16.384 34.816 34.816s-16.384 33.792-34.816 33.792c-19.456 0-34.816-15.36-34.816-33.792zM613.376 293.888c0-19.456 15.36-34.816 34.816-34.816 18.432 0 34.816 15.36 34.816 34.816 0 18.432-16.384 33.792-34.816 33.792-19.456 0-34.816-15.36-34.816-33.792z" />
<glyph unicode="&#xe94c;" glyph-name="arrow-right-12" d="M501.76 566.272c0-19.456-15.36-34.816-34.816-34.816s-34.816 15.36-34.816 34.816c0 19.456 15.36 34.816 34.816 34.816s34.816-15.36 34.816-34.816zM501.76 384c0-19.456-15.36-34.816-34.816-34.816s-34.816 15.36-34.816 34.816c0 19.456 15.36 34.816 34.816 34.816s34.816-15.36 34.816-34.816zM501.76 293.888c0-19.456-15.36-34.816-34.816-34.816s-34.816 15.36-34.816 34.816c0 18.432 15.36 33.792 34.816 33.792s34.816-15.36 34.816-33.792zM501.76 201.728c0-18.432-15.36-33.792-34.816-33.792s-34.816 15.36-34.816 33.792c0 19.456 15.36 34.816 34.816 34.816s34.816-15.36 34.816-34.816zM591.872 293.888c0-19.456-15.36-34.816-33.792-34.816-19.456 0-34.816 15.36-34.816 34.816 0 18.432 15.36 33.792 34.816 33.792 18.432 0 33.792-15.36 33.792-33.792zM591.872 475.136c0-18.432-15.36-34.816-33.792-34.816-19.456 0-34.816 16.384-34.816 34.816s15.36 33.792 34.816 33.792c18.432 0 33.792-15.36 33.792-33.792zM410.624 111.616c0-19.456-15.36-34.816-34.816-34.816-18.432 0-34.816 15.36-34.816 34.816s16.384 34.816 34.816 34.816c19.456 0 34.816-15.36 34.816-34.816zM683.008 384c0-19.456-15.36-34.816-34.816-34.816-18.432 0-34.816 15.36-34.816 34.816s16.384 34.816 34.816 34.816c19.456 0 34.816-15.36 34.816-34.816zM591.872 384c0-19.456-15.36-34.816-33.792-34.816-19.456 0-34.816 15.36-34.816 34.816s15.36 34.816 34.816 34.816c18.432 0 33.792-15.36 33.792-34.816zM501.76 475.136c0-18.432-15.36-34.816-34.816-34.816s-34.816 16.384-34.816 34.816c0 18.432 15.36 33.792 34.816 33.792s34.816-15.36 34.816-33.792zM410.624 656.384c0-18.432-15.36-34.816-34.816-34.816-18.432 0-34.816 15.36-34.816 34.816s16.384 34.816 34.816 34.816c19.456 0 34.816-15.36 34.816-34.816zM410.624 201.728c0-18.432-15.36-33.792-34.816-33.792-18.432 0-34.816 15.36-34.816 33.792 0 19.456 16.384 34.816 34.816 34.816 19.456 0 34.816-15.36 34.816-34.816zM410.624 566.272c0-19.456-15.36-34.816-34.816-34.816-18.432 0-34.816 15.36-34.816 34.816s16.384 34.816 34.816 34.816c19.456 0 34.816-15.36 34.816-34.816zM410.624 384c0-19.456-15.36-34.816-34.816-34.816-18.432 0-34.816 15.36-34.816 34.816s16.384 34.816 34.816 34.816c19.456 0 34.816-15.36 34.816-34.816zM410.624 475.136c0-18.432-15.36-34.816-34.816-34.816-18.432 0-34.816 16.384-34.816 34.816s16.384 33.792 34.816 33.792c19.456 0 34.816-15.36 34.816-33.792zM410.624 293.888c0-19.456-15.36-34.816-34.816-34.816-18.432 0-34.816 15.36-34.816 34.816 0 18.432 16.384 33.792 34.816 33.792 19.456 0 34.816-15.36 34.816-33.792z" />
<glyph unicode="&#xe94d;" glyph-name="arrow-left" d="M725.333 426.667h-323.669l97.835 97.835c16.683 16.683 16.683 43.648 0 60.331s-43.648 16.683-60.331 0l-200.832-200.832 200.832-200.832c8.32-8.32 19.243-12.501 30.165-12.501s21.845 4.181 30.165 12.501c16.683 16.683 16.683 43.648 0 60.331l-97.835 97.835h323.669c23.552 0 42.667 19.115 42.667 42.667s-19.115 42.667-42.667 42.667z" />
<glyph unicode="&#xe94e;" glyph-name="arrow-right" d="M567.168 584.832c-16.683-16.683-16.683-43.648 0-60.331l97.835-97.835h-323.669c-23.552 0-42.667-19.115-42.667-42.667s19.115-42.667 42.667-42.667h323.669l-97.835-97.835c-16.683-16.683-16.683-43.648 0-60.331 8.32-8.32 19.243-12.501 30.165-12.501s21.845 4.181 30.165 12.501l200.832 200.832-200.832 200.832c-16.683 16.683-43.648 16.683-60.331 0z" />
<glyph unicode="&#xe94f;" glyph-name="plus-circle, circle-plus" d="M981.333 384c0 129.579-52.565 246.997-137.472 331.861s-202.283 137.472-331.861 137.472-246.997-52.565-331.861-137.472-137.472-202.283-137.472-331.861 52.565-246.997 137.472-331.861 202.283-137.472 331.861-137.472 246.997 52.565 331.861 137.472 137.472 202.283 137.472 331.861zM896 384c0-106.069-42.923-201.984-112.469-271.531s-165.461-112.469-271.531-112.469-201.984 42.923-271.531 112.469-112.469 165.461-112.469 271.531 42.923 201.984 112.469 271.531 165.461 112.469 271.531 112.469 201.984-42.923 271.531-112.469 112.469-165.461 112.469-271.531zM341.333 341.333h128v-128c0-23.552 19.115-42.667 42.667-42.667s42.667 19.115 42.667 42.667v128h128c23.552 0 42.667 19.115 42.667 42.667s-19.115 42.667-42.667 42.667h-128v128c0 23.552-19.115 42.667-42.667 42.667s-42.667-19.115-42.667-42.667v-128h-128c-23.552 0-42.667-19.115-42.667-42.667s19.115-42.667 42.667-42.667z" />
<glyph unicode="&#xe950;" glyph-name="post, standard" d="M917.806 666.924c-22.212 30.292-53.174 65.7-87.178 99.704s-69.412 64.964-99.704 87.178c-51.574 37.82-76.592 42.194-90.924 42.194h-496c-44.112 0-80-35.888-80-80v-864c0-44.112 35.888-80 80-80h736c44.112 0 80 35.888 80 80v624c0 14.332-4.372 39.35-42.194 90.924zM785.374 721.374c30.7-30.7 54.8-58.398 72.58-81.374h-153.954v153.946c22.984-17.78 50.678-41.878 81.374-72.572zM896-48c0-8.672-7.328-16-16-16h-736c-8.672 0-16 7.328-16 16v864c0 8.672 7.328 16 16 16 0 0 495.956 0.002 496 0v-224c0-17.672 14.326-32 32-32h224v-624zM736 64h-448c-17.672 0-32 14.326-32 32s14.328 32 32 32h448c17.674 0 32-14.326 32-32s-14.326-32-32-32zM736 192h-448c-17.672 0-32 14.326-32 32s14.328 32 32 32h448c17.674 0 32-14.326 32-32s-14.326-32-32-32zM736 320h-448c-17.672 0-32 14.326-32 32s14.328 32 32 32h448c17.674 0 32-14.326 32-32s-14.326-32-32-32z" />
<glyph unicode="&#xe951;" glyph-name="quote" d="M225 448c123.712 0 224-100.29 224-224s-100.288-224-224-224-224 100.288-224 224l-1 32c0 247.424 200.576 448 448 448v-128c-85.474 0-165.834-33.286-226.274-93.726-11.634-11.636-22.252-24.016-31.83-37.020 11.438 1.8 23.16 2.746 35.104 2.746zM801 448c123.71 0 224-100.29 224-224s-100.29-224-224-224-224 100.288-224 224l-1 32c0 247.424 200.576 448 448 448v-128c-85.474 0-165.834-33.286-226.274-93.726-11.636-11.636-22.254-24.016-31.832-37.020 11.44 1.8 23.16 2.746 35.106 2.746z" />
<glyph unicode="&#xe952;" glyph-name="new-tab" d="M704 64h-512v512h288l128 128h-544v-768h768v544l-128-128v-288zM1024 896h-416l160-160-480-480 96-96 480 480 160-160v416z" />
<glyph unicode="&#xe953;" glyph-name="refresh" d="M889.68 729.68c-93.608 102.216-228.154 166.32-377.68 166.32-282.77 0-512-229.23-512-512h96c0 229.75 186.25 416 416 416 123.020 0 233.542-53.418 309.696-138.306l-149.696-149.694h352v352l-134.32-134.32zM928 384c0-229.75-186.25-416-416-416-123.020 0-233.542 53.418-309.694 138.306l149.694 149.694h-352v-352l134.32 134.32c93.608-102.216 228.154-166.32 377.68-166.32 282.77 0 512 229.23 512 512h-96z" />
<glyph unicode="&#xe954;" glyph-name="play-circle" d="M512 896c-282.77 0-512-229.23-512-512s229.23-512 512-512 512 229.23 512 512-229.23 512-512 512zM512-32c-229.75 0-416 186.25-416 416s186.25 416 416 416 416-186.25 416-416-186.25-416-416-416zM384 608l384-224-384-224z" />
<glyph unicode="&#xe955;" glyph-name="play" d="M192 768l640-384-640-384z" />
<glyph unicode="&#xe956;" glyph-name="checkmark" d="M896 736l-544-544-224 224-96-96 320-320 640 640z" />
<glyph unicode="&#xe957;" glyph-name="close" d="M781.256 205.256l-90.512-90.512-178.744 178.746-178.746-178.744-90.51 90.51 178.746 178.744-178.744 178.746 90.508 90.508 178.746-178.744 178.744 178.746 90.512-90.51-178.746-178.746 178.746-178.744z" />
<glyph unicode="&#xe958;" glyph-name="close-2" d="M893.254 674.746l-90.508 90.508-290.746-290.744-290.746 290.744-90.508-90.506 290.746-290.748-290.746-290.746 90.508-90.508 290.746 290.746 290.746-290.746 90.508 90.51-290.744 290.744z" />
<glyph unicode="&#xe959;" glyph-name="plus-3" d="M960 448h-384v384h-128v-384h-384v-128h384v-384h128v384h384z" />
<glyph unicode="&#xe95a;" glyph-name="question" d="M576 128c0-35.346-28.654-64-64-64s-64 28.654-64 64 28.654 64 64 64 64-28.654 64-64zM512 896c-282.77 0-512-229.23-512-512s229.23-512 512-512 512 229.23 512 512-229.23 512-512 512zM512-32c-229.75 0-416 186.25-416 416s186.25 416 416 416 416-186.25 416-416-186.25-416-416-416zM512 223.75c-26.51 0-48 21.49-48 48v32c0 33.618 12.964 63.854 38.532 89.87 18.864 19.194 41.778 33.59 63.936 47.512 45.564 28.624 65.532 43.978 65.532 70.868 0 29.252-16.88 48.788-31.042 60.026-22.734 18.040-54.328 27.974-88.958 27.974-52.534 0-99.792-35.082-114.924-85.314-7.65-25.382-34.422-39.758-59.806-32.114-25.382 7.65-39.76 34.422-32.114 59.806 13.112 43.52 40.398 82.63 76.832 110.124 37.71 28.456 82.668 43.498 130.012 43.498 56.208 0 108.994-17.32 148.63-48.776 43.444-34.474 67.37-82.496 67.37-135.224 0-82.76-63.846-122.872-110.462-152.158-39.11-24.57-57.538-38.114-57.538-56.092v-32c0-26.51-21.49-48-48-48z" />
<glyph unicode="&#xe95b;" glyph-name="star-full" d="M1022.442 489.952c-4.274 13.2-16.566 22.142-30.442 22.142l-343.458 0.012-106.122 325.128c-4.296 13.164-16.572 22.072-30.42 22.072s-26.124-8.908-30.42-22.072l-106.12-325.128-343.46-0.012c-13.876 0-26.168-8.942-30.444-22.142s0.446-27.65 11.688-35.784l277.736-200.922-106.056-325.026c-4.298-13.174 0.37-27.618 11.568-35.784 11.198-8.162 26.378-8.194 37.606-0.070l277.902 201.006 277.9-201.004c5.598-4.048 12.176-6.072 18.754-6.072 6.62 0 13.236 2.048 18.854 6.142 11.198 8.166 15.868 22.61 11.568 35.784l-106.056 325.024 277.734 200.922c11.242 8.132 15.962 22.582 11.688 35.784z" />
<glyph unicode="&#xe95c;" glyph-name="star-half" d="M1022.442 489.952c-4.274 13.2-16.566 22.142-30.442 22.142l-343.458 0.012-106.122 325.128c-4.296 13.164-16.572 22.072-30.42 22.072s-26.124-8.908-30.42-22.072l-106.12-325.128-343.46-0.012c-13.876 0-26.168-8.942-30.444-22.142s0.446-27.65 11.688-35.784l277.736-200.922-106.056-325.026c-4.298-13.174 0.37-27.618 11.568-35.784 11.198-8.162 26.378-8.194 37.606-0.070l277.902 201.006 277.9-201.004c5.598-4.048 12.176-6.072 18.754-6.072 6.62 0 13.236 2.048 18.854 6.142 11.198 8.166 15.868 22.61 11.568 35.784l-106.056 325.024 277.734 200.922c11.242 8.132 15.962 22.582 11.688 35.784zM676.606 291.424c-11.264-8.146-15.978-22.636-11.666-35.852l82.788-253.714-216.972 156.934c-5.596 4.048-12.176 6.072-18.754 6.072v559.312l82.904-253.998c4.296-13.164 16.572-22.070 30.418-22.070l267.852-0.008-216.57-156.676z" />
<glyph unicode="&#xe95d;" glyph-name="star-empty" d="M808.654-113.706c-6.578 0-13.156 2.024-18.754 6.072l-277.9 201.006-277.9-201.004c-11.228-8.124-26.408-8.092-37.606 0.070-11.198 8.166-15.868 22.61-11.568 35.784l106.056 325.026-277.736 200.92c-11.242 8.132-15.96 22.584-11.688 35.784s16.568 22.142 30.444 22.142l343.458 0.012 106.12 325.128c4.296 13.164 16.574 22.072 30.42 22.072s26.124-8.908 30.42-22.072l106.122-325.128 343.458-0.012c13.876 0 26.168-8.942 30.442-22.142 4.276-13.2-0.446-27.65-11.688-35.784l-277.734-200.922 106.056-325.026c4.298-13.174-0.372-27.618-11.568-35.784-5.618-4.092-12.234-6.142-18.854-6.142zM130.826 448.098l216.57-156.674c11.264-8.146 15.978-22.636 11.666-35.852l-82.788-253.716 216.974 156.936c11.192 8.096 26.316 8.098 37.508 0l216.972-156.934-82.788 253.714c-4.312 13.214 0.402 27.706 11.666 35.852l216.568 156.674-267.852 0.008c-13.846 0-26.122 8.908-30.418 22.070l-82.904 254-82.904-253.998c-4.296-13.164-16.572-22.070-30.42-22.070l-267.85-0.010z" />
<glyph unicode="&#xe95e;" glyph-name="earth" d="M512 896c-282.77 0-512-229.23-512-512s229.23-512 512-512 512 229.23 512 512-229.23 512-512 512zM960.002 384c0-66.234-14.386-129.102-40.184-185.672 18.636 179.412-23.79 290.864-26.028 296.57-5.674 14.472-20.93 22.774-36.162 19.678-42.26-8.588-85.686 4.464-116.138 34.916-24.176 24.174-37.49 56.318-37.49 90.508s13.314 66.334 37.49 90.508c8.168 8.168 17.268 15.088 27.138 20.718 115.7-81.002 191.374-215.268 191.374-367.226zM320 788.862v-39.606l-109.254-109.256h-66.408c44.414 63.668 104.93 115.258 175.662 148.862zM302.31 252.622l-110.31 55.156v140.222h83.242c30.922-28.394 129.088-111.182 236.758-125.788v-54.046l-192-216v171.834c0 12.122-6.848 23.202-17.69 28.622zM512-64.002c-62.958 0-122.872 13.012-177.23 36.452l233.148 262.29c5.206 5.858 8.082 13.422 8.082 21.26v96c0 17.674-14.326 32-32 32-112.99 0-232.204 117.462-233.374 118.626-6 6.002-14.14 9.374-22.626 9.374h-128c-17.672 0-32-14.328-32-32v-192c0-12.122 6.848-23.202 17.69-28.622l110.31-55.156v-187.886c-116.052 80.956-192 215.432-192 367.664 0 68.714 15.49 133.806 43.138 192h116.862c8.488 0 16.626 3.372 22.628 9.372l128 128c6 6.002 9.372 14.14 9.372 22.628v77.412c40.562 12.074 83.518 18.588 128 18.588 70.406 0 137.004-16.26 196.282-45.2-4.144-3.502-8.176-7.164-12.046-11.036-36.266-36.264-56.236-84.478-56.236-135.764s19.97-99.5 56.236-135.764c36.434-36.432 85.218-56.264 135.634-56.26 3.166 0 6.342 0.080 9.518 0.236 13.814-51.802 38.752-186.656-8.404-372.334-0.444-1.744-0.696-3.488-0.842-5.224-81.324-83.080-194.7-134.656-320.142-134.656z" />
<glyph unicode="&#xe95f;" glyph-name="heart-empty" d="M513.322-128l-52.896 72.066c-64.944 88.476-141.586 152.090-215.708 213.61-62.278 51.688-121.1 100.512-165.862 159.054-53.062 69.394-78.856 144.11-78.856 228.418 0 158.17 134.224 286.852 299.208 286.852 57.666 0 115.102-20.268 166.098-58.612 16.61-12.49 32.308-26.778 46.704-42.394 14.39 15.616 30.082 29.902 46.692 42.392 50.988 38.344 108.422 58.614 166.088 58.614 164.986 0 299.21-128.682 299.21-286.852 0-81.042-25.84-153.942-78.998-222.858-44.458-57.64-102.508-106.394-163.966-158.012-75.66-63.542-153.896-129.246-216.54-218.976l-51.174-73.302zM299.208 704c-94.406 0-171.208-71.262-171.208-158.852 0-124.252 83.248-193.346 198.466-288.98 58.888-48.876 123.84-102.786 184.542-171.308 60.57 70.664 127.252 126.664 187.706 177.438 56.014 47.042 108.922 91.476 144.934 138.166 36.206 46.94 52.352 91.562 52.352 144.684 0 87.59-76.804 158.852-171.21 158.852-47.952 0-117.040-35.294-155.416-112.786l-57.328-115.76-57.368 115.742c-38.414 77.502-107.52 112.804-155.47 112.804z" />
<glyph unicode="&#xe960;" glyph-name="heart-full" d="M755.188 832c-107.63 0-200.258-87.554-243.164-179-42.938 91.444-135.578 179-243.216 179-148.382 0-268.808-120.44-268.808-268.832 0-301.846 304.5-380.994 512.022-679.418 196.154 296.576 511.978 387.206 511.978 679.418 0 148.392-120.43 268.832-268.812 268.832z" />
<glyph unicode="&#xe961;" glyph-name="link" d="M549.49 250.51l-215.352-215.352c-22.672-22.672-53.068-35.158-85.59-35.158-32.482 0-62.832 12.46-85.46 35.090-22.632 22.634-35.094 52.994-35.088 85.486 0.006 32.51 12.492 62.898 35.158 85.564l215.354 215.352-90.51 90.508-215.354-215.35c-96.838-96.84-96.868-255.27-0.068-352.070 48.38-48.382 112.18-72.58 175.968-72.58 63.836 0 127.664 24.212 176.1 72.65l215.352 215.35-90.51 90.51zM645.49 346.508l215.352 215.354c22.672 22.672 35.158 53.066 35.158 85.588 0 32.482-12.46 62.832-35.090 85.458-22.634 22.636-52.994 35.098-85.486 35.092-32.51-0.006-62.898-12.492-85.564-35.156l-215.352-215.356-90.508 90.51 215.35 215.352c96.84 96.838 255.27 96.87 352.070 0.070 48.382-48.382 72.58-112.18 72.58-175.97 0-63.836-24.212-127.662-72.65-176.1l-215.35-215.35-90.51 90.508zM416 223.996l-64 64 255.998 255.998 64-64-255.998-255.998z" />
<glyph unicode="&#xe962;" glyph-name="menu" d="M64 704h896v-128h-896v128zM64 448h896v-128h-896v128zM64 192h896v-128h-896v128z" />
<glyph unicode="&#xe963;" glyph-name="lock" d="M832 448h-64v192c0 141.384-114.616 256-256 256s-256-114.616-256-256v-192h-64c-35.2 0-64-28.8-64-64v-448c0-35.2 28.8-64 64-64h640c35.2 0 64 28.8 64 64v448c0 35.2-28.8 64-64 64zM512 64c-35.346 0-64 28.654-64 64s28.654 64 64 64 64-28.654 64-64-28.654-64-64-64zM640 448h-256v192c0 70.58 57.42 128 128 128s128-57.42 128-128v-192z" />
<glyph unicode="&#xe964;" glyph-name="bubble, chat" d="M512 704c-54.932 0-107.988-8.662-157.694-25.742-46.712-16.054-88.306-38.744-123.628-67.444-66.214-53.798-102.678-122.984-102.678-194.814 0-40.298 11.188-79.378 33.252-116.152 22.752-37.92 56.982-72.586 98.988-100.252 30.356-19.992 50.78-51.948 56.176-87.894 1.8-11.984 2.928-24.088 3.37-36.124 7.47 6.194 14.75 12.846 21.88 19.976 24.154 24.152 56.78 37.49 90.502 37.49 5.368 0 10.762-0.336 16.156-1.024 20.974-2.666 42.398-4.020 63.676-4.020 54.934 0 107.988 8.66 157.694 25.742 46.712 16.054 88.306 38.744 123.628 67.444 66.214 53.796 102.678 122.984 102.678 194.814s-36.464 141.016-102.678 194.814c-35.322 28.698-76.916 51.39-123.628 67.444-49.706 17.080-102.76 25.742-157.694 25.742zM512 832v0c282.77 0 512-186.25 512-416s-229.23-416-512-416c-27.156 0-53.81 1.734-79.824 5.044-109.978-109.978-241.25-129.7-368.176-132.596v26.916c68.536 33.578 128 94.74 128 164.636 0 9.754-0.758 19.33-2.164 28.696-115.796 76.264-189.836 192.754-189.836 323.304 0 229.75 229.23 416 512 416z" />
<glyph unicode="&#xe965;" glyph-name="reply" d="M448 120.372v-248.372l-384 384 384 384v-253.824c446.75-10.48 427.588 303.792 313.862 509.824 280.71-303.414 221.1-789.57-313.862-775.628z" />
<glyph unicode="&#xe966;" glyph-name="location" d="M512 896c-212.078 0-384-171.922-384-384 0-384 384-640 384-640s384 256 384 640c0 212.078-171.922 384-384 384zM645.982 103.254c-49.436-58.186-99.51-102.9-133.982-130.97-34.474 28.070-84.548 72.788-133.982 130.97-50.238 59.128-90.060 120.502-118.362 182.408-34.278 74.97-51.656 151.124-51.656 226.338 0 81.202 31.622 157.542 89.040 214.96s133.758 89.040 214.96 89.040c81.204 0 157.542-31.622 214.96-89.040s89.040-133.758 89.040-214.96c0-75.214-17.378-151.368-51.654-226.338-28.304-61.906-68.126-123.28-118.364-182.408zM512 704c-70.692 0-128-57.308-128-128s57.308-128 128-128c70.694 0 128 57.308 128 128s-57.306 128-128 128zM512 512c-35.346 0-64 28.654-64 64s28.654 64 64 64c35.346 0 64-28.654 64-64s-28.654-64-64-64z" />
<glyph unicode="&#xe967;" glyph-name="cart" d="M847.218 320c35.2 0 71.912 27.692 81.582 61.54l92.836 324.924c9.67 33.844-11.218 61.536-46.418 61.536h-655.218c0 70.692-57.308 128-128 128h-192v-128h192v-544c0-53.020 42.98-96 96-96h608c35.346 0 64 28.654 64 64s-28.654 64-64 64h-576v64h527.218zM320 640h578.806l-54.86-192h-523.946v192zM384-32c0-53.020-42.98-96-96-96s-96 42.98-96 96c0 53.020 42.98 96 96 96s96-42.98 96-96zM960-32c0-53.020-42.98-96-96-96s-96 42.98-96 96c0 53.020 42.98 96 96 96s96-42.98 96-96z" />
<glyph unicode="&#xe968;" glyph-name="file-play1" d="M384 512l320-224-320-224v448zM917.806 666.924c-22.212 30.292-53.174 65.7-87.178 99.704s-69.412 64.964-99.704 87.178c-51.574 37.82-76.592 42.194-90.924 42.194h-496c-44.112 0-80-35.888-80-80v-864c0-44.112 35.888-80 80-80h736c44.112 0 80 35.888 80 80v624c0 14.332-4.372 39.35-42.194 90.924zM785.374 721.374c30.7-30.7 54.8-58.398 72.58-81.374h-153.954v153.946c22.984-17.78 50.678-41.878 81.374-72.572zM896-48c0-8.672-7.328-16-16-16h-736c-8.672 0-16 7.328-16 16v864c0 8.672 7.328 16 16 16 0 0 495.956 0.002 496 0v-224c0-17.672 14.326-32 32-32h224v-624z" />
<glyph unicode="&#xe969;" glyph-name="file-video, video" d="M917.806 666.924c-22.208 30.292-53.174 65.7-87.178 99.704s-69.412 64.964-99.704 87.178c-51.574 37.82-76.594 42.194-90.924 42.194h-496c-44.112 0-80-35.888-80-80v-864c0-44.112 35.882-80 80-80h736c44.112 0 80 35.888 80 80v624c0 14.332-4.372 39.35-42.194 90.924v0 0zM785.374 721.374c30.7-30.7 54.8-58.398 72.58-81.374h-153.954v153.946c22.98-17.78 50.678-41.878 81.374-72.572v0 0zM896-48c0-8.672-7.328-16-16-16h-736c-8.672 0-16 7.328-16 16v864c0 8.672 7.328 16 16 16 0 0 495.956 0.002 496 0v-224c0-17.672 14.32-32 32-32h224v-624zM256 384h320v-320h-320v320zM576 256l192 128v-320l-192 128z" />
<glyph unicode="&#xe96a;" glyph-name="file-play, play1" d="M384 512l320-224-320-224v448zM917.806 666.924c-22.212 30.292-53.174 65.7-87.178 99.704s-69.412 64.964-99.704 87.178c-51.574 37.82-76.592 42.194-90.924 42.194h-496c-44.112 0-80-35.888-80-80v-864c0-44.112 35.888-80 80-80h736c44.112 0 80 35.888 80 80v624c0 14.332-4.372 39.35-42.194 90.924zM785.374 721.374c30.7-30.7 54.8-58.398 72.58-81.374h-153.954v153.946c22.984-17.78 50.678-41.878 81.374-72.572zM896-48c0-8.672-7.328-16-16-16h-736c-8.672 0-16 7.328-16 16v864c0 8.672 7.328 16 16 16 0 0 495.956 0.002 496 0v-224c0-17.672 14.326-32 32-32h224v-624z" />
<glyph unicode="&#xe96b;" glyph-name="file-music, music, audio" d="M917.806 666.924c-22.21 30.292-53.174 65.7-87.178 99.704s-69.412 64.964-99.704 87.178c-51.574 37.82-76.592 42.194-90.924 42.194h-496c-44.112 0-80-35.888-80-80v-864c0-44.112 35.886-80 80-80h736c44.112 0 80 35.888 80 80v624c0 14.332-4.372 39.35-42.194 90.924v0zM785.374 721.374c30.7-30.7 54.8-58.398 72.58-81.374h-153.954v153.946c22.982-17.78 50.678-41.878 81.374-72.572v0zM896-48c0-8.672-7.328-16-16-16h-736c-8.672 0-16 7.328-16 16v864c0 8.672 7.328 16 16 16 0 0 495.956 0.002 496 0v-224c0-17.672 14.324-32 32-32h224v-624zM756.288 504.748c-7.414 6.080-17.164 8.514-26.562 6.632l-320-64c-14.958-2.994-25.726-16.126-25.726-31.38v-236.876c-18.832 8.174-40.678 12.876-64 12.876-70.692 0-128-42.98-128-96s57.308-96 128-96 128 42.98 128 96v229.766l256 51.202v-133.842c-18.832 8.174-40.678 12.876-64 12.876-70.692 0-128-42.98-128-96s57.308-96 128-96 128 42.98 128 96v319.998c0 9.586-4.298 18.668-11.712 24.748z" />
<glyph unicode="&#xe96c;" glyph-name="file-picture, image" d="M832 0h-640v128l192 320 263-320 185 128v-256zM832 416c0-53.020-42.98-96-96-96-53.022 0-96 42.98-96 96s42.978 96 96 96c53.020 0 96-42.98 96-96zM917.806 666.924c-22.212 30.292-53.174 65.7-87.178 99.704s-69.412 64.964-99.704 87.178c-51.574 37.82-76.592 42.194-90.924 42.194h-496c-44.112 0-80-35.888-80-80v-864c0-44.112 35.888-80 80-80h736c44.112 0 80 35.888 80 80v624c0 14.332-4.372 39.35-42.194 90.924zM785.374 721.374c30.7-30.7 54.8-58.398 72.58-81.374h-153.954v153.946c22.984-17.78 50.678-41.878 81.374-72.572zM896-48c0-8.672-7.328-16-16-16h-736c-8.672 0-16 7.328-16 16v864c0 8.672 7.328 16 16 16 0 0 495.956 0.002 496 0v-224c0-17.672 14.326-32 32-32h224v-624z" />
<glyph unicode="&#xe96d;" glyph-name="pencil, edit" d="M768 352v-352h-640v640h352l128 128h-512c-52.8 0-96-43.2-96-96v-704c0-52.8 43.2-96 96-96h704c52.798 0 96 43.2 96 96v512l-128-128zM864 896l-608-608v-160h160l608 608c0 96-64 160-160 160zM416 256l-48 48 480 480 48-48-480-480z" />
<glyph unicode="&#xe96e;" glyph-name="gallery" horiz-adv-x="1152" d="M1088 768h-64v64c0 35.2-28.8 64-64 64h-896c-35.2 0-64-28.8-64-64v-768c0-35.2 28.8-64 64-64h64v-64c0-35.2 28.8-64 64-64h896c35.2 0 64 28.8 64 64v768c0 35.2-28.8 64-64 64zM128 704v-640h-63.886c-0.040 0.034-0.082 0.076-0.114 0.116v767.77c0.034 0.040 0.076 0.082 0.114 0.114h895.77c0.040-0.034 0.082-0.076 0.116-0.116v-63.884h-768c-35.2 0-64-28.8-64-64v0zM1088-63.884c-0.034-0.040-0.076-0.082-0.116-0.116h-895.77c-0.040 0.034-0.082 0.076-0.114 0.116v767.77c0.034 0.040 0.076 0.082 0.114 0.114h895.77c0.040-0.034 0.082-0.076 0.116-0.116v-767.768zM960 544c0-53.020-42.98-96-96-96s-96 42.98-96 96 42.98 96 96 96 96-42.98 96-96zM1024 0h-768v128l224 384 256-320h64l224 192z" />
<glyph unicode="&#xe96f;" glyph-name="arrow-right-default, arrow-right-0" d="M810.667 341.333h-597.333c-25.6 0-42.667 17.067-42.667 42.667s17.067 42.667 42.667 42.667h597.333c25.6 0 42.667-17.067 42.667-42.667s-17.067-42.667-42.667-42.667zM512 42.667c-12.8 0-21.333 4.267-29.867 12.8-17.067 17.067-17.067 42.667 0 59.733l268.8 268.8-268.8 268.8c-17.067 17.067-17.067 42.667 0 59.733s42.667 17.067 59.733 0l298.667-298.667c17.067-17.067 17.067-42.667 0-59.733l-298.667-298.667c-8.533-8.533-17.067-12.8-29.867-12.8z" />
<glyph unicode="&#xe970;" glyph-name="arrow-left-default, arrow-left-0" d="M810.667 341.333h-597.333c-25.6 0-42.667 17.067-42.667 42.667s17.067 42.667 42.667 42.667h597.333c25.6 0 42.667-17.067 42.667-42.667s-17.067-42.667-42.667-42.667zM512 42.667c-12.8 0-21.333 4.267-29.867 12.8l-298.667 298.667c-17.067 17.067-17.067 42.667 0 59.733l298.667 298.667c17.067 17.067 42.667 17.067 59.733 0s17.067-42.667 0-59.733l-268.8-268.8 268.8-268.8c17.067-17.067 17.067-42.667 0-59.733-8.533-8.533-17.067-12.8-29.867-12.8z" />
<glyph unicode="&#xe971;" glyph-name="envelope" d="M928 768c53.020 0 96-42.98 96-96v-576c0-53.020-42.98-96-96-96h-832c-53.020 0-96 42.98-96 96v576c0 53.020 42.98 96 96 96h832zM928 672h-832v-81.609c44.85-36.525 116.359-93.32 269.174-212.98 33.668-26.484 100.41-90.152 146.826-89.402 46.424-0.742 113.145 62.908 146.826 89.402 152.838 119.678 224.33 176.461 269.174 212.98v81.609zM96 96h832v371.202c-45.83-36.504-110.838-87.738-209.894-165.305-45.088-35.496-120.672-110.357-206.106-109.895-85.855-0.463-162.41 75.5-206.124 109.91-99.059 77.568-164.049 128.789-209.876 165.291v-371.204z" />
<glyph unicode="&#xe972;" glyph-name="eye" horiz-adv-x="1152" d="M576 608c0.186 0 0.488 0.002 0.674 0.002 123.328 0 223.42-100.094 223.42-223.422 0-123.326-100.092-223.42-223.42-223.42s-223.42 100.094-223.42 223.42c0 17.426 3.918 45.156 8.746 61.9 13.861-7.883 38.055-14.369 54-14.48 61.824 0 112 50.176 112 112-0.111 15.945-6.598 40.139-14.48 54 16.848 5.244 44.838 9.725 62.48 10zM1145.040 413.2c3.842-7.598 6.959-20.676 6.959-29.189s-3.117-21.592-6.959-29.189c-108.398-211.542-323.18-354.82-569.040-354.82s-460.58 143.18-569.040 354.8c-3.842 7.598-6.959 20.676-6.959 29.189s3.117 21.592 6.959 29.189c108.398 211.542 323.18 354.82 569.040 354.82s460.58-143.18 569.040-354.8zM576 96c197.32 0 378.2 110 475.86 288-97.68 178-278.54 288-475.86 288s-378.18-110-475.86-288c97.68-178 278.558-288 475.86-288z" />
<glyph unicode="&#xe973;" glyph-name="puzzle" d="M881.067 409.6c-27.733 0-55.467-10.667-76.8-25.6v247.467c0 23.467-19.2 44.8-44.8 44.8h-245.333c17.067 21.333 27.733 46.933 27.733 76.8 0 68.267-55.467 123.733-123.733 123.733s-123.733-55.467-123.733-123.733c0-29.867 10.667-55.467 27.733-76.8h-251.733c-23.467 0-44.8-19.2-44.8-44.8v-691.2c0-23.467 19.2-44.8 44.8-44.8h249.6c-17.067 21.333-27.733 49.067-27.733 78.933 0 68.267 55.467 123.733 123.733 123.733s123.733-55.467 123.733-123.733c0-29.867-10.667-57.6-27.733-78.933h249.6c23.467 0 44.8 19.2 44.8 44.8v247.467c21.333-17.067 46.933-25.6 76.8-25.6 68.267 0 123.733 55.467 123.733 123.733-2.133 68.267-57.6 123.733-125.867 123.733z" />
<glyph unicode="&#xe974;" glyph-name="bar" d="M972.8 896h-153.6c-27.733 0-51.2-23.467-51.2-51.2v-224c0 27.733-23.467 51.2-51.2 51.2h-153.6c-27.733 0-51.2-23.467-51.2-51.2v-258.133c0 27.733-23.467 51.2-51.2 51.2h-153.6c-27.733 0-51.2-23.467-51.2-51.2v-270.933c0 27.733-23.467 51.2-51.2 51.2h-153.6c-27.733 0-51.2-23.467-51.2-51.2v-219.733h1024v972.8c0 27.733-23.467 51.2-51.2 51.2z" />
<glyph unicode="&#xe975;" glyph-name="copy" horiz-adv-x="1020" d="M933.691 638.672h-211.217c-11.736 0-21.249 9.514-21.249 21.249v0 215.255c0 11.736-9.514 21.249-21.249 21.249v0h-358.899c-11.736 0-21.249-9.514-21.249-21.249v0-755.41c0-11.736 9.514-21.249 21.249-21.249v0h591.366c11.475 0 42.498 9.35 42.498 21.249v498.294c-0.355 11.458-9.728 20.612-21.24 20.612-0.003 0-0.007 0-0.010 0h0.001zM671.475 15.645h-396.935c-34.246 0.24-61.928 27.997-62.048 62.249v614.115c0 8.567-6.945 15.512-15.512 15.512v0h-135.995c-8.567 0-15.512-6.945-15.512-15.512v0-804.496c0-8.567 6.945-15.512 15.512-15.512v0h610.49c8.567 0 15.512 6.945 15.512 15.512v0 112.196c0.004 0.127 0.006 0.276 0.006 0.425 0 8.567-6.945 15.512-15.512 15.512-0.002 0-0.004 0-0.006 0v0zM776.447 689.458h167.444c0.031 0 0.068-0.001 0.104-0.001 4.694 0 8.5 3.805 8.5 8.5 0 2.215-0.847 4.231-2.235 5.744l0.006-0.006-167.656 185.506c-1.565 1.769-3.841 2.879-6.376 2.879-4.694 0-8.5-3.805-8.5-8.5 0-0.041 0-0.082 0.001-0.122v0.006-185.506c0-0.001 0-0.002 0-0.003 0-4.694 3.805-8.5 8.5-8.5 0.075 0 0.149 0.001 0.223 0.003h-0.011z" />
<glyph unicode="&#xe976;" glyph-name="graduation" d="M67.413 426.667c-7.919-8.074-12.806-19.146-12.806-31.36 0-24.742 20.058-44.8 44.8-44.8 0.002 0 0.005 0 0.007 0h106.666c0.065 0 0.143-0.001 0.22-0.001 24.742 0 44.8 20.058 44.8 44.8 0 12.532-5.146 23.863-13.44 31.993l-0.007 0.007-39.893 39.68v186.667l50.133-12.587c-5.76-60.8-5.547-173.867 57.6-258.773 46.921-60.066 117.883-99.473 198.169-103.653l0.658-0.027c2.218-0.599 4.836-1.053 7.521-1.27l0.159-0.010h1.493c1.182-0.105 2.557-0.165 3.947-0.165s2.765 0.060 4.123 0.177l-0.177-0.012c80.893 4.151 151.808 43.579 198.164 103.081l0.449 0.599c64 85.333 64 197.973 57.6 258.987l159.573 40.32c20.48 4.504 35.578 22.495 35.578 44.013 0 20.979-14.352 38.606-33.773 43.599l-0.312 0.068-426.667 124.8c-3.888 1.289-8.364 2.033-13.013 2.033s-9.125-0.744-13.315-2.119l0.302 0.086-400.64-124.8c-18.569-5.748-31.823-22.766-31.823-42.879 0-20.969 14.406-38.573 33.861-43.455l0.309-0.066 21.333-5.333v-206.933zM757.547 307.2c-81.707 1.92-170.667-51.2-239.36-137.387-51.627 78.293-144.64 157.227-274.987 123.947-80.057-18.712-143.462-76.192-170.153-151.095l-0.513-1.652c-10.124-28.084-15.977-60.492-15.977-94.267 0-57.733 17.101-111.471 46.515-156.426l-0.671 1.092c8.243-10.987 21.208-18.044 35.826-18.133h723.214c11.157 0.064 21.363 4.084 29.299 10.726l-0.072-0.059c5.12 4.48 125.653 110.293 28.587 309.76-35.2 72.107-92.587 112.64-161.707 114.347z" />
<glyph unicode="&#xe977;" glyph-name="clock" d="M512 888.533c-278.646 0-504.533-225.887-504.533-504.533s225.887-504.533 504.533-504.533c278.646 0 504.533 225.887 504.533 504.533v0c0 278.646-225.887 504.533-504.533 504.533v0zM664.533 221.227c-7.915-7.92-18.852-12.818-30.933-12.818s-23.018 4.899-30.933 12.818l-121.6 121.6c-7.902 7.75-12.801 18.538-12.801 30.471 0 0.088 0 0.175 0.001 0.263v-0.013 254.72c0 24.153 19.58 43.733 43.733 43.733s43.733-19.58 43.733-43.733v0-236.587l108.8-108.8c8.121-7.781 13.168-18.714 13.168-30.827s-5.047-23.046-13.153-30.812l-0.015-0.015z" />
<glyph unicode="&#xf099;" glyph-name="twitter" d="M918.74 592.572c0.65-9.096 0.65-18.195 0.65-27.291 0-277.44-211.166-597.116-597.118-597.116-118.904 0-229.36 34.438-322.274 94.211 16.895-1.947 33.137-2.598 50.68-2.598 98.109 0 188.426 33.137 260.548 89.664-92.264 1.951-169.584 62.377-196.225 145.545 12.996-1.949 25.99-3.248 39.637-3.248 18.842 0 37.686 2.6 55.227 7.146-96.162 19.494-168.285 103.959-168.285 205.968v2.598c27.938-15.594 60.428-25.34 94.861-26.637-56.527 37.686-93.561 102.010-93.561 174.781 0 38.984 10.393 74.721 28.588 105.908 103.309-127.35 258.6-210.516 432.728-219.614-3.248 15.594-5.197 31.836-5.197 48.080 0 115.654 93.564 209.868 209.868 209.868 60.428 0 115.004-25.34 153.342-66.273 47.43 9.096 92.91 26.639 133.197 50.68-15.596-48.732-48.732-89.666-92.264-115.654 42.234 4.547 83.168 16.244 120.852 32.486-28.584-41.582-64.322-78.617-105.256-108.506z" />
<glyph unicode="&#xf0e1;" glyph-name="linkedin" d="M200.56 0.004h-185.76v598.2h185.76v-598.2zM107.58 679.804c-59.4 0-107.58 49.199-107.58 108.6 0 59.383 48.195 107.58 107.58 107.58s107.58-48.197 107.58-107.58c0-59.4-48.199-108.6-107.58-108.6zM895.8 0.004h-185.361v291.2c0 69.4-1.4 158.4-96.58 158.4-96.58 0-111.379-75.4-111.379-153.4v-296.2h-185.561v598.2h178.16v-81.6h2.6c24.801 47 85.381 96.6 175.76 96.6 188 0 222.56-123.799 222.56-284.6v-328.6h-0.199z" />
<glyph unicode="&#xf113;" glyph-name="github" horiz-adv-x="960" d="M372.2 238.604c0-41.799-21.799-110.199-73.398-110.199-51.602 0-73.4 68.4-73.4 110.199 0 41.801 21.799 110.201 73.4 110.201s73.398-68.4 73.398-110.201zM960 339.604c0-63.799-6.4-131.4-35-190-75.801-153.199-284.2-149.6-433.4-149.6-151.6 0-372.4-5.4-451.2 149.6-29.201 58-40.4 126.201-40.4 190 0 83.801 27.801 163 83 227.202-10.4 31.6-15.4 64.799-15.4 97.6 0 43 9.801 64.6 29.201 103.6 90.6 0 148.6-18 217.6-72 58 13.801 117.6 20 177.4 20 54 0 108.398-5.801 160.799-18.4 68 53.4 126 70.4 215.6 70.4 19.602-39 29.201-60.6 29.201-103.6 0-32.801-5.201-65.4-15.4-96.4 55-64.801 78-144.6 78-228.4zM831.4 238.604c0 87.801-53.4 165.201-147 165.201-37.801 0-74-6.801-112-12-29.801-4.602-59.6-6.4-90.201-6.4-30.398 0-60.199 1.799-90.199 6.4-37.4 5.199-74 12-112 12-93.6 0-147-77.4-147-165.201 0-175.6 160.801-202.6 300.8-202.6h96.398c140.602 0 301.202 26.801 301.202 202.6zM666.2 348.804c51.602 0 73.4-68.4 73.4-110.201 0-41.799-21.799-110.199-73.4-110.199s-73.398 68.4-73.398 110.199c0 41.801 21.799 110.201 73.398 110.201z" />
<glyph unicode="&#xf167;" glyph-name="youtube" horiz-adv-x="1152" d="M1099.31 647.838c22.824-85.734 22.824-264.61 22.824-264.61s0-178.877-22.824-264.612c-12.563-47.299-49.574-83-96.568-95.641-85.182-22.973-426.742-22.973-426.742-22.973s-341.56 0-426.742 22.973c-46.994 12.641-84.006 48.342-96.568 95.641-22.824 85.734-22.824 264.612-22.824 264.612s0 178.875 22.824 264.61c12.563 47.301 49.574 84.551 96.568 97.193 85.182 22.973 426.742 22.973 426.742 22.973s341.562 0 426.742-22.973c46.994-12.641 84.006-49.893 96.568-97.193zM464.29 220.822l285.478 162.402-285.478 162.41v-324.812z" />
<glyph unicode="&#xf168;" glyph-name="xing" horiz-adv-x="768" d="M325.4 476.004c-3.6-6.6-50.4-88.801-140.201-247-9.799-16.6-21.6-25-35.398-25h-130.201c-15.4 0-24.199 15-17 28.801l138 242.6c0.4 0 0.4 0.199 0 0.6l-87.799 151.199c-8.602 15.602 0.6 28.201 17 28.201h130.199c14.6 0 26.6-8.201 36-24.4zM765.2 803.804l-288-506v-0.602l183.201-333.2c7.799-14.199 0.4-28.199-17-28.199h-130.4c-15.199 0-27.199 8-36 24.398l-184.801 337c6.602 11.602 103 181.602 289.602 510.4 9.199 16.201 20.799 24.4 35 24.4h131.398c16 0 24.602-13.4 17-28.199z" />
<glyph unicode="&#xf16d;" glyph-name="instagram" d="M448.2 614.004c127.201 0 229.8-102.6 229.8-229.8s-102.6-229.798-229.8-229.798c-127.199 0-229.798 102.6-229.798 229.798 0 127.201 102.6 229.8 229.798 229.8zM448.2 234.804c82.201 0 149.4 67 149.4 149.398 0 82.4-67 149.4-149.4 149.4-82.398 0-149.398-67-149.398-149.4 0-82.398 67.199-149.398 149.398-149.398zM741 623.404c0-29.801-24-53.6-53.6-53.6-29.801 0-53.6 24-53.6 53.6s24 53.6 53.6 53.6 53.6-24 53.6-53.6zM893.2 569.004c4.201-74 4.201-295.6 0-369.6-3.6-71.801-20-135.4-72.398-187.801-52.4-52.6-116-69-187.801-72.4-74-4.199-295.8-4.199-369.8 0-71.799 3.602-135.199 20-187.799 72.4s-69 116-72.4 187.801c-4.199 74-4.199 295.798 0 369.798 3.6 71.801 19.801 135.4 72.4 187.801s116.199 68.801 187.799 72.199c74 4.201 295.8 4.201 369.8 0 71.801-3.6 135.4-20 187.801-72.398 52.6-52.4 69-116 72.398-187.801zM797.6 120.004c23.4 58.801 18 199 18 264.2s5.4 205.202-18 264.202c-15.799 39.4-46 69.6-85.199 85.199-58.801 23.201-199 18-264.202 18-65.199 0-205.2 5.4-264.2-18-39.4-15.799-69.6-46-85.199-85.199-23.201-58.801-18-199-18-264.202 0-65.199-5.4-205.2 18-264.2 15.799-39.4 46-69.6 85.199-85.199 58.801-23.201 199-18 264.2-18s205.202-5.4 264.202 18c39.4 15.799 69.6 46 85.199 85.199z" />
<glyph unicode="&#xf173;" glyph-name="tumblr" horiz-adv-x="640" d="M619.6-64.596c-27.199-29-100-63.4-194.799-63.4-241.602 0-294 177.6-294 281.2v288h-95c-11 0-20 9-20 20v136c0 14.4 9 27.201 22.6 32 124 43.602 163 152 168.6 234.202 1.6 22 13 32.6 32.199 32.6h141.801c11 0 20-9 20-20v-230.4h166c11 0 20-8.799 20-19.799v-163.4c0-11-9-20-20-20h-166.801v-266.4c0-68.4 47.4-107.199 136-71.6 9.602 3.799 18 6.4 25.4 4.4 7-1.801 11.6-6.801 14.801-15.801l44-128.6c3.6-10 6.6-21.201-0.801-29z" />
<glyph unicode="&#xf179;" glyph-name="apple" horiz-adv-x="768" d="M637.4 358.604c0-3.799-7-122.4 123.4-183.799-24.4-73.602-108-237.202-205.202-238.602-56.199 0-89.199 35.801-152.799 35.801-65.602 0-101.201-34.6-151.602-35.801-96.398-3-188.799 177-214.398 250.4-19.201 55.867-28.801 110-28.801 162.4 0 177.4 118.6 264.6 230.2 266.4 54 0 122.801-39.4 152.801-39.4 28.4 0 106 47 177 41.4 75-5.801 131.801-35.4 169.4-89.201-67.201-40.799-100.4-96.199-100-169.6zM524.2 687.004c-39.199-45.801-86.799-72.6-139-68.6-4.398 55.199 16.201 104.199 51.201 143.799 31.799 37 87.6 67 135.799 69.801 1.602-21.199 6.602-80.199-48-145z" />
<glyph unicode="&#xf17b;" glyph-name="android" d="M179.199 487.004v-231.6c0-30.801-24.199-55.4-55-55.4-30.6 0-60.199 24.801-60.199 55.4v231.6c0 30.199 29.6 55 60.199 55 30.201 0 55-24.801 55-55zM200.8 173.004v358.8h494.6v-358.8c0-32.801-26.4-59.199-58.801-59.199h-40.4v-122.201c0-73.6-111-73.4-111 0v122.201h-74.398v-122.201c0-73.199-110.4-73.799-110.4 0l-0.6 122.201h-39.801c-32.801 0-59.199 26.398-59.199 59.199zM696.8 551.204h-498.202c0 85.602 51.201 160 127.201 198.801l-38.201 70.6c-5.6 9.801 8.6 16 13.4 7.6l38.801-71.199c69.799 31 150 29.4 216.6 0l38.6 71c5 8.6 19 2.199 13.4-7.6l-38.201-70.4c75.4-38.801 126.602-113.199 126.602-198.801zM355.4 662.204c0 11.4-9.201 21-21 21-11.4 0-20.4-9.6-20.4-21 0-11.398 9.199-21 20.4-21 11.799 0 21 9.602 21 21zM582.2 662.204c0 11.4-9.199 21-20.398 21-11.801 0-21-9.6-21-21 0-11.398 9.199-21 21-21 11.199 0 20.398 9.602 20.398 21zM771.8 542.004c30.6 0 60.199-24.199 60.199-55v-231.6c0-30.6-29.4-55.4-60.199-55.4-30.201 0-55 24.6-55 55.4v231.6c0 30.801 24.799 55 55 55z" />
<glyph unicode="&#xf17d;" glyph-name="dribbble" d="M512 880.004c273.496 0 496-222.504 496-496s-222.504-496-496-496-496 222.504-496 496 222.504 496 496 496zM839.94 651.272c-8.932-12.082-79.926-103.092-236.568-167.045 14.873-30.443 25.73-55.146 37.234-83.229 140.969 17.729 281.038-10.682 295.004-13.637-0.932 99.996-36.664 191.818-95.67 263.91zM792.842 700.264c-104.189 92.438-245.77 127.363-380.122 94.979 11.709-15.68 88.656-120.465 158.080-248.016 150.646 56.465 214.422 142.184 222.042 153.037zM331.882 766.764c-118.527-55.906-207.124-165.17-234.596-296.636 18.949-0.25 193.494-1.008 391.668 51.619-70.197 124.785-145.902 229.7-157.072 245.018zM88.34 383.358c0-108.814 41.248-208.164 108.914-283.272 68.674 117.559 207.864 241.462 361.062 284.612-10.635 24.068-22.221 48.162-34.348 71.898-211.572-63.318-416.876-60.672-435.412-60.291-0.131-4.303-0.217-8.615-0.217-12.947zM251.954 49.133c125.508-97.871 289.312-113.791 425.538-55.766-6.301 37.17-30.898 166.711-90.379 321.278-170.801-58.27-290.904-175.047-335.158-265.512zM748.714 32.154c95.043 64.268 162.705 166.074 181.59 283.956-14.494 4.574-131.135 39.363-263.894 18.111 55.412-152.273 77.961-276.294 82.305-302.066z" />
<glyph unicode="&#xf17e;" glyph-name="skype" d="M849.4 296.404c29.199-37.801 46.6-85 46.4-136.201 0-123.6-100.4-224-224-224-51.201 0-98.4 17.4-136.4 46.602-28.201-6-57.801-9.4-87.6-9.4-226.8 0-410.602 183.6-410.602 410.6 0 29.801 3.602 59.6 9.4 87.6-29.199 37.801-46.6 85-46.6 136.4 0 123.6 100.4 224 224 224 51.4 0 98.6-17.4 136.6-46.801 28.201 6 57.801 9.4 87.6 9.4 226.8 0 410.602-183.6 410.602-410.6 0-29.801-3.602-59.6-9.4-87.6zM460.2 113.404c109.801 0 224 54.799 224 173 0 101.6-98.6 136.6-181.398 155.199-96.602 22.4-138.201 26.4-138.201 66 0 31 32.6 45 84 45 91.6 0 93.4-67 150-67 37.801 0 60.6 29.801 60.6 63.6 0 67-111.398 110.801-221.6 110.801-101 0-218.2-43.801-218.2-162.199 0-130.4 110.6-143.602 235.6-174.4 52-12.801 84-18.6 84-56 0-29.801-33.199-52.6-84.6-52.6-108 0-113.801 89.799-176.201 89.799-41 0-59-29.199-59-61.199 0-71.6 109.801-130 241-130z" />
<glyph unicode="&#xf189;" glyph-name="vk" horiz-adv-x="1152" d="M1090 660.604c-14.801-68.6-158.6-271-158.801-271.2-12.398-20-17.398-30 0-52.4 6.801-9.6 158.201-153.199 180.602-223 9.799-33.199-7.201-50-40.801-50h-117.801c-44.799 0-58 35.801-138 115.801-70 67.398-100 76.199-117.398 76.199-37.602 0-30.801-12.6-30.801-146.199 0-29-9.199-45.801-84.199-45.801-124.801 0-262 75.801-359.4 215.6-146.201 204.8-186.201 359.8-186.201 391 0 17.6 6.801 33.4 40.4 33.4h117.801c30.199 0 41.6-13.199 53.199-45.801 57.6-168 154.801-314.798 194.801-314.798 15 0 21.799 7 21.799 45v173.6c-4.398 80-46.799 86.6-46.799 115 0 13 11.199 27 30 27h185.199c24.801 0 33.201-13.4 33.201-43.4v-233.4c0-25 11.398-33.799 18.799-33.799 15 0 27.6 8.799 55 36.199 84.801 94.801 144.801 241 144.801 241 7.4 17.6 21.199 33.4 51.199 33.4h117.801c35.6 0 43-18.4 35.6-43.4z" />
<glyph unicode="&#xf18a;" glyph-name="weibo" d="M814 540.804c15.199 48-26.801 93.6-74.801 83.398-44-9.6-57.6 56.201-14.199 65.602 100.199 21.799 184.6-74.201 153-169.602-13.6-42.398-77.6-21.6-64 20.602zM429.6 2.603c-212.6 0-429.6 102.801-429.6 272.6 0 88.602 56 190.801 152.6 287.4 199.4 199.4 406.4 201.8 347.202 11.4-8-26.199 24.6-11.4 24.6-12 159 67.199 281 33.6 228-102.801-7.4-18.799 2.199-21.799 16.6-26.199 271.4-84.6 69.6-430.4-339.4-430.4zM717 295.204c-10.801 111.4-157 188-326.8 171.4-169.6-17.199-297.6-120.6-286.798-232 10.799-111.4 157-188 326.798-171.4 169.602 17.201 297.602 120.602 286.8 232zM695.8 825.804c204.6 43.199 378.6-149 314.798-348.602-16.6-50-89.6-24.398-74.799 24 46.199 142.4-78.801 278.4-223.4 248-50.201-10.799-68.4 65.4-16.6 76.602zM538.8 203.804c-34.201-77.602-133.602-120-218.202-92.602-81.6 26.201-116 106.801-80.6 179.4 35.4 70.801 126.199 110.801 206.8 90.201 84-21.602 126.199-100.4 92-177zM366.2 263.804c-25.799 10.799-60-0.602-76-25.801-16.6-25.801-8.6-56 17.201-68 26.199-12 61.6-0.6 78.199 25.801 16 26.199 7.4 56.6-19.4 68zM431.4 290.604c-10.201 3.4-22.801-1.199-28.6-10.799-5.801-10.201-2.801-21.201 7.398-25.801 10.201-4 23.4 0.6 29.201 10.801 5.6 10.398 2.199 21.799-8 25.799z" />
<glyph unicode="&#xf18b;" glyph-name="renren" d="M428 557.804c0-220.8-122-410.8-295.2-494.8-72.801 86.6-116.801 197.6-116.801 319.8 0 245.398 178.199 448.798 412 488.2v-313.2zM510-111.996c-85.801 0-166.6 22-237 60.801 114.4 72.199 206.8 181.398 237 309.2 31-127.801 123.4-237 237.6-309.4-70.199-38.6-151-60.6-237.6-60.6zM891.2 63.004c-173.199 84-295.2 273.8-295.2 494.8v313.2c233.8-39.4 412-242.8 412-488.2 0-122.201-44-233.202-116.801-319.8z" />
<glyph unicode="&#xf19a;" glyph-name="wordpress" d="M123.4 557.204l203-556c-142 68.801-239.8 214.4-239.8 382.8 0 61.801 13.201 120.199 36.801 173.199zM799.2 405.404c0-36.4-14-78.6-32-137.4l-42.398-141.801-153.801 457.4c25.6 1.4 48.6 4 48.6 4 22.801 2.6 20.201 36.4-2.799 35 0 0-69-5.4-113.4-5.4-41.801 0-112 5.4-112 5.4-22.801 1.4-25.6-33.6-2.6-35 0 0 21.6-2.6 44.6-4l66.199-181.6-93.199-279.2-155 460.798c25.6 1.4 48.6 4 48.6 4 22.801 2.6 20.199 36.4-2.801 35 0 0-69-5.4-113.398-5.4-8 0-17.4 0.201-27.4 0.602 76.199 115.6 207 191.799 355.6 191.799 110.801 0 211.6-42.4 287.4-111.799-2 0.199-3.801 0.398-5.6 0.398-41.801 0-71.4-36.398-71.4-75.6 0-35 20.199-64.799 41.799-99.799 16.201-28.4 35-64.801 35-117.4zM519.4 346.804l130.799-358.4c0.801-2 1.801-4 3-5.801-44.199-15.6-91.6-24.199-141.199-24.199-41.801 0-82 6.199-120.199 17.4zM885.4 588.204c33.199-60.6 52-130.199 52-204.2 0-157-85-294-211.6-367.8l130 375.8c24.398 60.801 32.398 109.199 32.398 152.4 0 15.799-1 30.199-2.799 43.799zM1008 384.004c0-273.6-222.6-496-496-496-273.6 0-496 222.6-496 496 0 273.6 222.4 496 496 496 273.4 0 496-222.4 496-496zM985.2 384.004c0 261-212.398 473.2-473.2 473.2-261 0-473.2-212.2-473.2-473.2s212.398-473.2 473.2-473.2c261 0 473.2 212.2 473.2 473.2z" />
<glyph unicode="&#xf1a0;" glyph-name="google" horiz-adv-x="976" d="M976 372.404c0-283-193.801-484.4-480-484.4-274.4 0-496 221.6-496 496s221.6 496 496 496c133.6 0 246-49 332.6-129.801l-135-129.799c-176.6 170.4-505 42.4-505-236.4 0-173 138.201-313.2 307.4-313.2 196.4 0 270 140.799 281.6 213.798h-281.6v170.6h472.2c4.602-25.398 7.801-49.799 7.801-82.799z" />
<glyph unicode="&#xf1a5;" glyph-name="delicious" d="M893 760.004c2-7.6 3-15.801 3.199-24v-704.2c0-53-43-96-96-96h-704c-8.199 0-16.398 1-24 3-15.398 4-29.199 11.6-40.6 22-2.4 2.199-4.6 4.398-6.6 6.6-10.4 11.4-18 25.199-22 40.6-2 7.6-3 15.801-3 24v704c0 53 43 96 96 95.801h704c8.199 0 16.4-1 24-3 3.801-0.801 7.4-2 10.801-3.4 3.799-1.4 7.398-3 11-5 2.799-1.4 5.398-3 8-4.801 2.199-1.6 4.398-3.199 6.6-5 5-4 9.6-8.6 13.799-13.6 3.4-4.199 6.602-9 9.4-13.801 2.6-4.6 4.801-9.199 6.6-14.199 1-3 2-6 2.801-9zM832 32.004v352h-384v384h-352c-17.6 0-32-14.4-32-32v-352h384v-384h352c17.6 0 32 14.4 32 32z" />
<glyph unicode="&#xf1a6;" glyph-name="digg" d="M163.4 551.404v152.6h102v-501.4h-265.4v348.8h163.4zM163.4 284.604v184.6h-61.6v-184.6h61.6zM757.8 551.404h266.2v-487.4h-266.2v81.6h163.6v57h-163.6v348.8zM921.4 284.604v184.6h-61.6v-184.6h61.6zM450.2 202.604v348.8h266.602v-487.4h-266.602v81.6h164.201v57h-164.201zM552.6 469.204v-184.6h61.6v184.6h-61.6zM306.6 704.004h102.6v-102h-102.6v102zM306.6 551.404h102.6v-348.8h-102.6v348.8z" />
<glyph unicode="&#xf1be;" glyph-name="soundcloud" horiz-adv-x="1280" d="M222.8 383.404l11.6-130-11.6-136.6c-0.602-5-4.4-8.801-8.801-8.801s-8.4 3.801-8.4 8.801l-11.199 136.6 11.199 130c0 4.4 3.801 8.4 8.4 8.4 4.4 0 8.199-4 8.801-8.4zM265.6 474.604c5 0 9.4-4.4 9.4-10l11.6-211.2-11.6-136.6c0-5.602-4.4-10-9.4-10-5.6 0-9.4 4.398-10 10l-10 136.6 10 211.2c0.6 5.6 4.4 10 10 10zM316.6 522.804c5.6 0 10.6-4.4 10.6-10.602l10.602-260-10.602-135.6c0-6.199-5-10.6-10.6-10.6-6.199 0-10.6 4.4-11.199 10.6l-8.801 135.6 8.801 260c0.6 6.201 5 10.602 11.199 10.602zM14.4 329.604c2.799 0 4.4-2.199 5-5l11.199-71.199-11.199-70c-0.6-2.801-2.201-5-5-5-2.801 0-4.4 2.199-5 5l-9.4 70 9.4 71.199c0.6 2.801 2.199 5 5 5zM61.6 373.404c2.801 0 5-2.201 5.6-5l14.4-115-14.4-112.801c-0.6-2.799-2.799-5-5.6-5-2.799 0-5 2.201-5 5.6l-12.799 112.201 12.799 115c0 2.799 2.201 5 5 5zM112.199 396.204c3.4 0 6.201-2.799 6.201-6.6l13.799-136.199-13.799-131.6c0-3.4-2.801-6.201-6.201-6.201-3.199 0-6 2.801-6.6 6.201l-11.6 131.6 11.6 136.199c0.4 3.801 3.201 6.6 6.6 6.6zM162.801 400.604c3.799 0 7.199-2.799 7.799-7.199l12.801-140-12.801-135.6c-0.6-4.4-4-7.201-7.799-7.201-3.801 0-7.201 2.801-7.201 7.201l-11.6 135.6 11.6 140c0 4.4 3.4 7.199 7.201 7.199zM645.6 622.404c5-2.801 8.201-8.4 9-14.4l7.801-355-7.801-128.4c0-9.4-7.799-17.199-17.199-17.199s-17.201 7.799-17.801 17.199l-3.4 63.4-3.398 65 6.6 353.4v1.6c0.4 5 2.799 10 6.6 13.4 2.801 2.199 6.801 3.799 11.199 3.799 2.801 0 6.201-1.199 8.4-2.799zM592.2 591.804c4.4-2.801 7.201-7.801 7.801-13.4l6.6-325.6-6.199-117.201-0.6-13.4c0-4.6-1.602-8.398-5-11.199-2.801-2.801-6.801-5-11.201-5-5 0-9.4 2.4-12.799 6.199-2.201 2.801-3.4 6-3.4 9.4v0.6c-6.201 130.602-6.201 131.201-6.201 131.201l5.602 321.6 0.6 3.4c0 5.6 2.799 10.6 7.199 13.4 2.6 1.6 5.6 2.799 8.801 2.799 3.199 0 6-1.199 8.799-2.799zM369.4 546.804c6.799 0 11.799-5.602 12.199-12.201l10-281.2-10-134.4c-0.6-6.6-5.6-11.6-12.199-11.6-6 0-11 5-11.6 11.6l-8.801 134.4 8.801 281.2c0 6.6 5.398 12.201 11.6 12.201zM1122.8 421.204c86.6 0 157.199-70.6 157-157.799 0-86.6-70.602-156.6-157.201-156.6h-436.6c-9.4 1.199-17.199 8.398-17.199 18.398v499.4c0 9.6 3.398 14 15.6 18.4 30.6 12.199 65 18.801 100.6 18.801 145 0 263.8-111.201 276.6-252.8 19 7.801 39.6 12.199 61.201 12.199zM529.4 541.804c8.4 0 14.4-6.602 15-15.602l7.799-273.398-7.799-131.201c0-8.4-6.6-15-15-15s-15 6.6-15.6 15l-6.602 131.201 6.602 273.398c0.6 9 7.199 15.602 15.6 15.602zM422.2 557.404c7.201 0 12.801-6.201 13.4-13.4l8.801-290.6-8.801-133.801c-0.6-7.199-6.199-12.799-13.4-12.799-6.6 0-12.199 5.6-12.799 12.799l-7.801 133.801 7.801 290.6c0 7.199 6.199 13.4 12.799 13.4zM475.6 550.604c7.801 0 13.801-6 13.801-13.799l8.4-283.4-8.4-132.801c0-7.6-6.201-13.799-13.801-13.799s-13.199 6-13.799 13.799l-7.801 132.801 7.801 283.4c0 7.6 6 13.799 13.799 13.799z" />
<glyph unicode="&#xf1d7;" glyph-name="wechat" horiz-adv-x="1152" d="M770.4 560.804c-184.801 0-330.8-138.201-330.6-308 0-28.4 4.398-55.801 12.398-81.602-12.398-1-24.199-1.6-36.6-1.6-48.799 0-87.6 9.801-136.4 19.4l-136-68.199 38.602 117.199c-97.201 68.199-155.801 156.4-155.801 263.2 0 185.201 175 330.8 389.4 330.8 191.199 0 359.4-116.6 392.6-273.4-12.4 1.6-24.801 2.201-37.6 2.201zM561.4 666.604c-29.4 0-58.4-19.4-58.6-48.799 0-29 29-48.4 58.6-48.4 29 0 48.4 19.4 48.4 48.4 0 29.398-19.4 48.799-48.4 48.799zM288.6 569.404c29.6 0 48.801 19.199 48.801 48.4 0 29.398-19.201 48.799-48.801 48.799-29 0-58.6-19.199-58.6-48.799 0-29 29.6-48.4 58.6-48.4zM1126 257.204c0-87.6-58-165.398-136.4-224.2l29.6-97.199-106.799 58.6c-39.4-9.6-78.6-19.801-117.201-19.801-185.199 0-330.798 126.801-330.798 282.6 0 155.801 145.4 282.602 330.798 282.602 175 0 330.8-126.801 330.8-282.602zM687.8 306.204c29.398 0 48.799 19.201 48.799 39.201 0 19.199-19.199 38.6-48.799 38.6-19.201 0-38.602-19.199-38.602-38.6 0-19.801 19.201-39.201 38.602-39.201zM902 306.204c29 0 49 19.201 48.801 39.201 0 19.199-19.801 38.6-48.801 38.6-19.199 0-38.6-19.199-38.6-38.6 0-19.801 19.199-39.201 38.6-39.201z" />
<glyph unicode="&#xf1e9;" glyph-name="yelp" horiz-adv-x="768" d="M85.801 415.364l199.238-97.219c38.4-18.801 32.4-75.021-9-85.42l-215.040-53.621c-3.021-0.76-8-1.375-11.115-1.375-22.535 0-42.83 18.178-45.305 40.576-1.418 12.363-2.57 32.5-2.57 44.945 0 35.621 9.215 91.932 20.57 125.693 5.771 17.137 25.133 31.043 43.215 31.043 5.816 0 14.777-2.070 20.006-4.623zM173.801-63.137c-10.971 7.504-19.855 24.381-19.855 37.672 0 9.658 5.238 23.326 11.695 30.508l148.42 164.801c28.619 31.621 81.020 10.4 79.619-32.199l-7.799-221.64c-0.824-24.297-21.225-44.016-45.535-44.016-2.143 0-5.594 0.293-7.705 0.656-47.738 8.084-118.898 36.855-158.84 64.219zM464.48 156.703c-22.6 36.221 12.4 80.82 53.020 67.82l210.84-68.52c17.381-5.779 31.484-25.334 31.484-43.65 0-5.625-1.928-14.33-4.305-19.43-20.836-43.76-68.064-104.338-105.42-135.221-7.012-5.777-20.078-10.467-29.164-10.467-13.994 0-31.393 9.617-38.836 21.467zM761.14 421.164c2.094-4.832 3.873-13.025 3.873-18.291 0-18.996-14.791-38.766-33.014-44.129l-213.28-61.020c-41-11.801-74.201 34.020-50.4 69.42l124 183.84c7.5 11.113 24.471 20.131 37.877 20.131 9.49 0 22.986-5.076 30.123-11.332 36.332-32.072 81.5-94.174 100.82-138.619zM124.221 835.644c58.939 28.059 159.586 55.027 224.66 60.199 1.008 0.082 2.648 0.148 3.66 0.148 25.029 0 45.342-20.312 45.342-45.34 0-0.113-0.002-0.295-0.002-0.408v-416.68c0-46.6-61.82-63.201-85.221-22.801l-208.24 360.88c-3.363 5.844-6.092 16.059-6.092 22.803 0 15.861 11.6 34.318 25.893 41.197z" />
<glyph unicode="&#xf231;" glyph-name="pinterest" horiz-adv-x="768" d="M408 883.004c188.4 0 360-129.6 360-328.2 0-186.602-95.4-393.602-307.8-393.602-50.398 0-114 25.201-138.6 72-45.6-180.6-42-207.6-142.799-345.6-10.4-3.799-7-4.6-13.801 3-3.6 37.801-9 75-9 112.801 0 122.4 56.4 299.4 84 418.2-15 30.6-19.199 67.801-19.199 101.4 0 160 187.799 184 187.799 51.6 0-78-52.799-151.199-52.799-226.798 0-51.602 42.6-87.602 92.398-87.602 138 0 180.602 199.201 180.602 305.4 0 142.201-100.801 219.6-237 219.6-158.4 0-280.8-114-280.8-274.798 0-77.4 47.4-117 47.4-135.6 0-15.602-11.4-70.801-31.201-70.801-48 0-127.199 80-127.199 220.8 0 221.398 202.8 358.2 408 358.2z" />
<glyph unicode="&#xf232;" glyph-name="whatsapp" d="M761.8 701.804c83.799-84 134.199-195.4 134.199-314 0-244.8-203.6-444-448.2-444h-0.201c-74.4 0-147.4 18.6-212.2 54l-235.4-61.801 63 230c-38.801 67.4-59.199 143.801-59.199 222 0 244.8 199.199 444 444 444 118.6 0 230.2-46.199 314-130.199zM447.8 18.603c203.398 0 373.2 165.6 373.2 369.202 0.199 98.6-42.6 191.199-112.199 261-69.602 69.799-162.201 108.199-260.8 108.199-203.6 0-369.2-165.6-369.2-369 0-69.801 19.398-137.6 56.398-196.4l8.801-14-37.199-136.199 139.6 36.6 13.4-8c56.6-33.6 121.6-51.4 188-51.4zM650.2 295.004c11-5.4 18.4-8.199 21-13.199 2.801-4.602 2.801-26.801-6.398-52.801-9.201-26-53.4-49.6-74.801-52.801-35.199-5.199-62.801-2.6-133.199 27.801-111.4 48.199-184 160.199-189.602 167.6-5.398 7.4-45.199 60.201-45.199 114.801s28.6 81.4 38.801 92.6c10.199 11 22.199 13.801 29.6 13.801s14.799 0 21.199-0.4c6.801-0.4 16 2.6 25-19 9.201-22.201 31.4-76.801 34.201-82.4 2.799-5.6 4.6-12 1-19.4-21.201-42.4-44-41-32.602-60.6 43-73.801 85.801-99.4 151-132 11-5.6 17.602-4.6 24 2.801 6.602 7.6 27.801 32.398 35.201 43.6 7.4 11.199 14.799 9.4 25 5.6 10.199-3.6 64.799-30.4 75.799-36z" />
<glyph unicode="&#xf263;" glyph-name="odnoklassniki" horiz-adv-x="640" d="M550.2 228.004c-54.799-34.801-130.199-48.6-180-53.801l41.801-41.199 152.6-152.6c55.801-57.201-35-146.6-91.4-91.4-38.199 38.801-94.199 94.801-152.6 153.199l-152.6-153c-56.4-55-147.199 35.201-90.801 91.4 38.801 38.801 94.201 94.801 152.602 152.6l41.199 41.201c-49.199 5.199-125.801 18.199-181.199 53.799-65.201 42-93.801 66.602-68.602 118 14.801 29.201 55.4 53.801 109.201 11.4 0 0 72.6-57.799 189.799-57.799 117.201 0 189.801 57.799 189.801 57.799 53.801 42.201 94.199 17.801 109.199-11.4 24.801-51.398-3.799-76-69-118.199zM60.6 636.604c0 143.4 116.6 259.4 259.4 259.4s259.4-116 259.4-259.4c0-142.799-116.6-258.798-259.4-258.798s-259.4 116-259.4 258.798zM192.6 636.604c0-70.199 57.201-127.4 127.4-127.4s127.4 57.201 127.4 127.4c0 70.801-57.201 128-127.4 128s-127.4-57.199-127.4-128z" />
<glyph unicode="&#xf265;" glyph-name="pocket" d="M815.2 768.004c45.4 0 80.801-36.4 80.801-81.199v-270.4c0-249.4-199.6-448.4-447.6-448.4-249 0-448.4 199-448.4 448.4v270.4c0 44.199 37 81.199 81.199 81.199h734zM491.2 231.004c223.8 215 229.602 210.8 229.602 246.4 0 33.799-27.602 61.4-61.4 61.4-33.801 0-29.801-4.801-211-178.602-178.201 171-176.4 178.602-210.4 178.602-33.801 0-61.4-27.602-61.4-61.4 0-36.201 2.4-28.6 229.8-246.4 22-22.199 60-23.6 84.799 0z" />
<glyph unicode="&#xf267;" glyph-name="safari" d="M473.8 382.404c0 18.199 13.199 35.4 32.6 35.4 17.799 0 34.799-12.801 34.799-32.201 0-18.199-12.799-35.4-32.199-35.4-18 0-35.199 13.4-35.199 32.201zM1008 384.004c0-274-222-496-496-496s-496 222-496 496 222 496 496 496 496-222 496-496zM954.8 384.004c0 244.6-198.201 442.8-442.8 442.8s-442.8-198.201-442.8-442.8 198.201-442.8 442.8-442.8 442.8 198.201 442.8 442.8zM809.8 190.805c0-7.201 26-20.4 32.6-24.4-54.801-83-139.6-142.801-235.8-166.6l-8.799 37c-0.602 5-3.801 5.6-8.4 5.6-3.801 0-6-5.6-5.6-8.4l8.799-37.6c-26.6-5.6-53.6-8.4-80.799-8.4-72.602 0-144 20.4-206 58.199 3.398 5.602 24.398 36 24.398 40.4 0 3.801-3.398 7.201-7.199 7.201-7.801 0-24.4-33.201-29.4-39.801-83.6 55.4-144 141.199-167.199 239.2l38.199 8.4c4.4 1.201 5.6 4.4 5.6 8.4 0 3.801-5.6 6-8.799 5.6l-37.4-8.6c-5 25.4-7.801 51-7.801 77 0 74.199 21 147.199 60.4 209.8 5.6-3.4 32.201-21.602 36.6-21.602 3.801 0 7.201 2.801 7.201 6.602 0 7.799-29.4 22.6-36 27.199 56.4 82.4 142.199 141.801 239.6 163.801l8.4-37c1.199-4.4 4.4-5.602 8.4-5.602s6 5.602 5.6 8.801l-8.4 36.6c24.4 4.4 49.199 7.201 74.199 7.201 74.201 0 146.602-21 209.8-60.4-3.801-5.6-21.6-31.6-21.6-36 0-3.801 2.799-7.201 6.6-7.201 7.801 0 22.6 28.801 26.6 35.4 82-55.4 140.6-140 163.4-236.4l-31-6.6c-5-1.199-5.6-4.4-5.6-8.799 0-3.801 5.6-6 8.4-5.602l31.6 7.201c5-25.4 7.799-51.4 7.799-77.4 0-72.6-20-144-57.6-205.4-5.6 2.801-28.799 19.4-33.199 19.4-4.201 0-7.6-3.4-7.6-7.199zM743.4 675.204c-26-24.398-268.4-247.398-275.202-259l-193.199-321c25.4 23.801 268.4 248 274.6 258.602z" />
<glyph unicode="&#xf268;" glyph-name="chrome" horiz-adv-x="992" d="M263 461.004l-152.801 234.8c95.201 118.398 238 183.6 384 184.199 84.602 0.6 171-21 249.602-66.4 86.799-50.4 152.799-122.799 194.799-206l-410.6 21.6c-116.199 6.801-226.8-58.6-265-168.199zM328.8 384.004c0 92.6 74.799 167.199 167.199 167.199s167.199-74.799 167.199-167.199-74.799-167.199-167.199-167.199-167.199 74.799-167.199 167.199zM958.6 562.404c87-223.8 0-483.8-214.798-607.8-86.801-50.4-182.602-70.799-275.602-65.799l224.202 344.798c63.799 98 62.6 225.8-13.201 314.4zM267.4 288.804c52.6-103.4 163.799-166.602 279-145l-127.4-249.602c-237.4 36.4-419 241.8-419 489.8 0 100.199 29.801 193.801 80.801 271.8z" />
<glyph unicode="&#xf269;" glyph-name="firefox" horiz-adv-x="960" d="M956.2 425.404c2.602-14.201 3.801-28.6 3.801-43.201v-5.6c-2.801-68-23.199-134-59.199-191.799-2-3-3.602-5.801-5.4-8.602 5.4-14.398 5.199-30.199-0.801-44.398-10-38.801-33.199-72.801-65.799-96.201-21.602-17.4-45.4-32.4-70.602-44.199l-3.799-1.801-2-1c-3.4-1.4-6.6-2.799-9.801-4.199-4.799-10.201-11.6-19.201-19.799-26.6-5-6.201-60.201-70-227.602-70-47.199 0-94.398 7-139.6 20.6 1.6-0.6 3.201-1.4 4.801-2-5.201 1.799-10.4 3.6-15.4 5.4-38.199 11.799-74.4 29.199-107.6 51.6-81.4 49.4-145.801 122.4-184.6 209.4-29 62.799-42.201 131.6-38.801 200.6-5.6-16.6-10.4-33.4-14-50.6 0 58.398 11 116.199 32.4 170.398-11-15.799-20.6-32.6-28.6-50.199 11.398 46.199 29.398 90.4 53.6 131.199 7.4 12.201 15.799 23.801 25.4 34.201v0.4c-0.201 5.398 0.199 11 1 16.6 3 32.6 11.398 64.4 24.799 94.199l0.6 1.4c0.201 0.6 0-2 0-3.4s-0.199-2.6 0-2c1.201 4 2.801 8 4.602 11.801 2 4.199 4.799 8.199 7.799 11.6 0.201 0.199 0.4 0.4 0.6 0.801 0.201 0.398-0.799-4-1-6.201v-1c1.201 2.4 2.602 4.801 4.4 9 4.201 11.801 12 22 22.201 29l0.398 0.201c-0.6-18 2.4-35.801 8.801-52.4v-0.201c0.6-0.799 1 2.602 1.801 2.602 0.199 0 0.398-0.201 0.398-0.4 1.801-3.6 3.602-7.201 5.4-10.4 2.6-4.4 5-8.4 7.4-12l0.801-0.4 0.398 0.201c5.201-8.4 11.801-15.602 19.4-21.801h-0.4l0.4-0.199c36.6 7.199 74.4 4 109.201-9.4l0.199 0.199c4.199 5.201 9.199 9.801 14.6 13.801 0-1.801-0.199-3.6-0.4-5.4 8 10 18.201 18 30 23-0.799-1.4-1-2.801-1-4.4 14.801 8.6 31 14.801 47.801 18 2.199 0-7-3.6-10.199-6.199 7.398 3.199 15.398 5.199 23.398 5.6 13.201 1.4 28-4.199 25.201-5.4-5.6-2-11-4.4-16.4-7-1.6-1.4 6.4 0.4 4.801-1-28-18.4-49.602-45.199-61.602-76.6v-0.199c5-22 22.801-38.602 45-42.201 63-6 75-11.199 76.801-18.199v-3c-0.199-2-0.4-3.801-0.6-5.6-2.4-13.801-9.801-26.4-20.4-35.4-2.801-2.6-5.801-5-9-7-2.199-1.4-12.801-5.6-25.6-11.201-15.801-6.398-31-14.199-45.4-23.199-2.6-1.6-4.801-3.4-6.801-5.4-0.799-0.799-2.398-3-2.398-3v-0.199c1-2.4 2-4.801 2.398-7.4-2.799 3.4-5.398 2.199-3.799-1 1.799-5 2.6-10.4 2.199-15.6 0.4-9.6-1.4-19.201-5.199-28-4.201 3-8.6 5.799-13.201 8.199h-0.398c5-3.199 8.6-7.799 10.799-13.199 1.4-4.4-0.6-5.4-0.6-5.4-2.801 4-6.199 7.199-10.4 9.4-6.199 3.6-17.6 9.4-22.799 11.6-0.602-0.4-1-0.199-1.602-0.4 1.602-2.6 4.201-7.6 4.201-7.6s-3.6 2.199-9.6 5.199c-7.801-3.6-14.4-9.799-18.602-17.398-7-15.4-6.199-33.4 2-48.201 8-12 18.201-22.4 30-30.4 0.801-0.6-6.799 2.201-6.199 1.602 9.199-6.4 18.801-12.201 28.801-17.201 3-2-10 2.4-6.801 0.6 2.801-1.799 5.6-3.398 8.6-5 45.801-24.199 77.801 0.801 112.801 5.801 33.6 6 67.6-7.199 88.4-34 12-17-1.201-33.4-18-28h-0.4c-17.201 5.801-38.201-8.6-73.201-28-34.6-16.6-73.799-21.199-111.199-13.199-9.6 1.799-18.801 4.199-28 7.398l-4 1.4 0.4-0.6c17.6-24.4 39.799-45 65.6-60.6 17.4-8.801 35.801-15 54.801-18.6 16-3.801 32.398-5.602 49-5.602 122-0.199 221.2 98.801 221.2 220.8 0.199 31.801-6.199 63.6-18.6 93 41.4-24.6 75.199-60.4 97.6-103-27.801 81.199-80.6 112.801-129.4 153.199-39.199 29.602-69.4 69.801-86.799 115.801-50.4 135.6 66.199 265.8 66.199 265.8s-7.199-30.201 54.801-88.602c12.799-11.799 33.6-29 57.799-53.398 3.4 18.6 8.4 36.799 14.801 54.6 5-29.4 15.6-57.6 30.799-83.201 23.4-33.398 43.801-51.199 61.4-80 3.801-5 7.6-10.398 11.201-15.799 10.199-14.4 19-29.6 26.6-45.6 12-24 21.6-49 29-74.801 6-20.801 9.799-41.801 11.6-63.199 5.801 7.799 9.4 11.799 9.4 11.799s1.4-5.199 2.799-14.199zM358.2 620.604c-1-2.4-1.799-4.6-2.6-7 0.801 2.4 1.801 4.801 2.6 7z" />
<glyph unicode="&#xf26a;" glyph-name="opera" horiz-adv-x="992" d="M627.8 830.604c-340.4 0-505.202-447.6-295-710.2 73-90.801 177.199-151.201 295-151.201 72.6 0 140.6 22.201 198.799 60.801-87.6-78.4-203.798-126-330.6-126-7.801 0-16 0-23.801 0.6-263 12.201-472.2 229.202-472.2 495.4 0 274 222 496 496 496h1.6c126.201-0.6 241.4-48.199 328.8-126.199-58 38.799-126.201 60.799-198.6 60.799zM831.4 35.203c-81.801-49.398-181.4-47.199-264 11.602 112.4 41 195.4 183.199 195.4 353.2 0 169.4-82.4 311.6-194.801 353.2 83.6 58.4 182.4 60.602 265.8 10 211.798-197.398 211-531.398-2.4-728z" />
<glyph unicode="&#xf26b;" glyph-name="ie" d="M966.098 576.592c50.393-90.895 66.516-195.162 53.703-282.324h-657.584c0-200.864 288.62-272.058 393.636-94.871h241.666c-65.129-183.457-239.378-292.044-433.626-292.044-70.273 0-140.545 0.287-203.39 31.146-174.795-88.988-360.502-113.139-360.502 84.012 0 91.613 46.492 214.192 87.984 290.044 70.271 127.445 162.824 249.75 271.374 346.336-87.412-37.721-182.25-132.592-243.954-202.316 51.754 225.574 258.932 387.276 474.196 372.914 260.064 119.588 419.346 68.289 419.346-77.154 0-54.865-21.137-126.592-42.848-175.742zM129.117 202.25c-146.002-304.8 23.051-344.488 200.534-246.608-93.127 54.865-165.111 144.307-200.534 246.608zM361.072 419.996h415.922c-4 110.303-101.127 189.742-207.962 189.742-107.408 0-203.958-79.439-207.958-189.742zM730.144 795.196c92.553-36.004 171.965-114.588 224.526-199.172 14.283 37.721 29.139 95.729 29.139 135.734 0 64.010-45.705 107.443-108.549 107.443-47.99 0-102.266-23.432-145.115-44.006z" />
<glyph unicode="&#xf27d;" glyph-name="vimeo" d="M895.6 588.804c-4-87.201-64.799-206.602-182.799-358.202-121.801-158.4-224.8-237.6-309.202-237.6-52.199 0-96.4 48.199-132.6 144.6-70.4 258.4-100.4 409.8-158.6 409.8-6.801 0-30.201-14.201-70.4-42.201l-42 54.4c103.199 90.6 201.8 191.4 263.6 197 69.801 6.801 112.6-41 128.801-143 57.4-363 82.799-417.798 187.199-253.4 37.4 59.201 57.6 104.201 60.4 135.201 9.6 91.799-71.6 85.6-126.6 62 44 144.199 128.199 214.2 252.4 210.2 91.6-2.4 135-62.199 129.799-178.799z" />
<glyph unicode="&#xf281;" glyph-name="reddit" d="M880.6 489.004c110.6 0 147.4-148.199 47.6-199.4 4.4-15.799 6.201-33.4 6.201-50.199 0-167.6-188.801-303.4-421.6-303.4-231.8 0-420.602 135.801-420.602 303.4 0 16.799 1.602 33.6 5.201 49.4-101.801 51-65.4 200.2 45.799 200.2 30 0 57.4-12.4 76.801-32.6 71.6 49.4 166.801 81.199 272.6 85.6l60.801 275.2c2.6 9.801 12.199 16.801 22 14.201l194.799-43.201c13.201 25.4 39.801 44 70.602 44 44.199 0 79.398-36.199 79.398-79.398 0-43.201-35.398-79.4-79.398-79.4-43.201 0-78.4 35.199-78.4 78.4l-176.4 39.6-55.4-249.6c106.6-3.4 202.8-35.201 274.202-84.602 19.398 19.4 45.799 31.801 75.799 31.801zM258.8 278.204c0-43.199 35.398-78.6 79.398-78.398 43.201 0 78.4 35.199 78.4 78.398 0 44.201-35.199 79.4-78.4 79.4-44.199 0-79.398-35.4-79.398-79.4zM687.4 91.203c8 7 8 19.4-0.201 27.4-7 7-19.398 7-26.398 0-58-58-242.4-57-298 0-7 7-19.4 7-26.4 0-8-8-8-20.4 0-27.4 72.799-72.799 278.2-72.799 351 0zM685.8 199.603c44 0 79.199 35.4 79.398 78.4 0 44.199-35.398 79.4-79.398 79.4-43.201 0-78.4-35.4-78.4-79.4 0-43.199 35.199-78.4 78.4-78.4z" />
<glyph unicode="&#xf282;" glyph-name="edge" d="M51.428 439.678c0.223 0.324 0.461 0.646 0.684 0.971-0.041-0.324-0.090-0.646-0.129-0.971h-0.555zM972.572 408.662l0.002-104.129h-628.146c2.768-256.994 382.784-248.13 544.51-135.143v-208.808c-94.711-57.049-313.548-106.342-480.264-42.648-141.238 54.281-239.826 201.056-241.486 343.954-2.215 184.438 91.389 306.844 241.484 376.628-31.57-39.879-55.939-83.080-68.678-157.852h351.706c20.494 209.914-198.838 209.914-198.838 209.914-206.604-7.18-355.89-127.309-440.75-249.932 29.123 228.93 185.812 439.91 465.674 439.356 170.039 0 315.21-79.756 397.186-226.53 42.094-75.881 57.602-156.746 57.602-244.81z" />
<glyph unicode="&#xf37d;" glyph-name="blogger" d="M893.2 450.604c4-17.799 4.801-268.2-5-303.4-14.199-50.6-35.799-88.799-70.398-124.199-47.801-48.801-98.801-75-163.801-83.801-37.4-5-402.4-3.799-432 1.602-89 16-177.6 89.398-208.8 188.6-12.6 40.199-14 70-12.799 273 1 162 2 190.199 6.199 207.798 22.801 93.602 85.201 166.801 172.201 201.202 47.199 18.799 78 21.6 216.798 20 88.4-1 114.801-2.201 126.6-5.801 49.201-15 92.4-41.6 131-81 54.201-55.199 81.602-116.6 81.801-182.6 0.199-34.4 5.6-47.199 25.801-59 12.799-7.4 17.199-8.199 57.398-10 24-1 46.4-3.4 50-5.4 11.4-6.199 21.4-21 25-37zM249 577.804c-24.4-24.602-12-72.201 21.199-81.602 6.201-1.6 48.602-2.799 101.602-2.398 86 0.398 91.398 0.799 100.6 6.6 17 10.799 24.6 24.199 24.6 43.199 0 21.201-8.199 34.4-26.801 43.801-12.799 6.6-15.799 6.799-103.6 6.799-97.6 0-102-0.6-117.6-16.398zM632.6 178.203c28.801 16.4 34 56.201 9.801 78.801-17 15.801-16 15.801-195.201 15.6-174.199-0.199-180.398-0.6-194.6-13.4-11.199-10.199-18.6-30.199-16.4-44.799 2.201-15.4 15.602-32.6 29.801-38.801 7.199-3.199 45.6-5.6 181.801-4l155 1.801z" />
<glyph unicode="&#xf39e;" glyph-name="facebook" horiz-adv-x="640" d="M558.28 320.004h-149.379v-448h-200.34v448h-162.781v185.32h162.781v141.24c0 160.68 95.719 249.44 242.16 249.44 70.139 0 143.5-12.52 143.5-12.52v-157.781h-80.84c-79.641 0-104.48-49.42-104.48-100.119v-120.26h177.82z" />
<glyph unicode="&#xf39f;" glyph-name="messenger" d="M513.1 880.004c280.080 0 494.9-204.68 494.9-481.14 0-350.26-332.3-546.458-638.88-462.080-17.939 4.881-19.299 1.201-125.119-45.398-4.209-1.838-11.352-3.33-15.943-3.33-21.248 0-39.086 17.234-39.816 38.469-2.84 92.74 0.6 101.441-16.1 116.461-96.721 86.32-156.141 211.28-156.141 355.878 0 276.46 217.040 481.14 497.1 481.14zM811.58 509.744c14.1 22.16-13.301 47.199-34.18 31.24l-156.82-118.76c-4.416-3.313-12.48-6-18-6s-13.584 2.688-18 6l-116.119 86.92c-10.979 8.199-31.010 14.854-44.713 14.854-22.688 0-50.961-15.553-63.107-34.715l-146-231.138c-14.102-22.141 13.299-47.201 34.219-31.34l156.74 118.879c4.416 3.313 12.48 6 18 6s13.584-2.688 18-6l116.16-86.939c10.979-8.195 31.008-14.846 44.707-14.846 22.686 0 50.961 15.549 63.113 34.705z" />
<glyph unicode="&#xf3ab;" glyph-name="googleplay" d="M650.6 427.404l-441.4 442.6 561.602-322.4zM94 896.004l513.2-511.8-513.2-512c-26 13.602-43.4 38.4-43.4 70.602v882.6c0 32.199 17.4 57 43.4 70.6zM944.4 444.804c38.4-28.602 38.4-93 2.4-121.602l-120.201-68.199-131.4 129 131.4 129zM209.2-101.996l441.4 442.6 120.201-120.199z" />
<glyph unicode="&#xf3cb;" glyph-name="mix" d="M0 768.004h896v-408.2c0-113.201-176-119.801-176 0v47.6c0 113.6-165.4 118-176 8.6v-232.2c0-116-192-115.801-192 0v350.6c0 113.799-160.199 118.799-176 13v-477.202c0-116.199-176-112.398-176 0v697.8z" />
<glyph unicode="&#xf3fe;" glyph-name="telegram" d="M893.4 698.804l-135.201-637.602c-10.199-45-36.799-56.199-74.6-35l-206 151.801-99.4-95.6c-11-11-20.199-20.201-41.398-20.201l14.799 209.8 381.8 345c16.6 14.801-3.6 23-25.801 8.199l-472-297.2-203.2 63.6c-44.201 13.801-45 44.201 9.199 65.4l794.8 306.2c36.799 13.801 69-8.199 57-64.398z" />
<glyph unicode="&#xf403;" glyph-name="uikit" d="M887.8 640.004v-512l-451.8-256-436 256v428.6l175.199-90.199v-234l267-151 271.602 151v302l-202.202 115.199 175.201 106.201zM617.2 797.804l-174.799-106-172 94.6 177.199 109.6z" />
<glyph unicode="&#xf409;" glyph-name="viber" d="M888 796.204c84.4-73.398 131.199-235.798 99.6-493-30.4-249.2-218.2-273.2-251.4-284-14.398-4.6-140.6-36.199-305-22.398-18.199-21-42.199-48.602-59.6-67.4-31.799-34.201-51.4-66-84.6-55.6-27.6 8.398-26 50.199-26 50.199l0.199 103.199h-0.199c-240.2 67.602-236.8 316.8-234 449.8s28.6 240.4 101.801 313.6c131.6 120.801 401.798 104.6 401.798 104.6 229.202-1 332-75.6 357.4-99zM915.8 322.004c26.6 214.6-9.801 361-81.201 422.2-21.6 19.602-114.4 78-308.2 78.801 0 0-229.4 15-340.8-86-62-61.199-83-152.199-85.199-263.2-2.201-111-14.201-323.202 189.4-379.602-0.201 0-0.201 0 0 0 0 0-0.801-157.6-0.801-171.398-0.199-21 11.4-22 22-11.4 32.4 32.6 136.4 158 136.4 158 139.4-9 250.4 18.6 262.4 22.4 28 9 180.199 22.199 206 230.2zM637.8 483.604c0.799-17.199-25-18.4-25.801-1.199-2.199 44-22.801 65.4-65.199 67.799-17.201 1-15.602 26.801 1.398 25.801 55.801-3 86.801-35 89.602-92.4zM678.4 461.004c2 84.801-51 151.199-151.6 158.6-17 1.201-15.201 27 1.799 25.801 116-8.4 177.801-88.201 175.6-185-0.199-17.201-26.199-16.4-25.799 0.6zM772.4 434.204c0.199-17.199-25.801-17.398-25.801-0.199-1.199 163-109.799 251.8-241.6 252.8-17 0.199-17 25.799 0 25.799 147.4-1 266-102.799 267.4-278.4zM749.8 238.004v-0.4c-21.602-38-62-80-103.602-66.6l-0.398 0.6c-42.201 11.801-141.602 63-204.4 113-32.4 25.6-62 55.801-84.801 84.801-20.6 25.799-41.4 56.4-61.6 93.199-42.6 77-52 111.4-52 111.4-13.4 41.6 28.4 82 66.6 103.6h0.4c18.4 9.6 36 6.4 47.801-7.799 0 0 24.799-29.602 35.398-44.201 10-13.6 23.4-35.4 30.4-47.6 12.201-21.801 4.6-44-7.4-53.199l-24-19.201c-12.199-9.799-10.6-28-10.6-28s35.6-134.6 168.6-168.6c0 0 18.201-1.6 28 10.6l19.201 24c9.199 12 31.4 19.6 53.199 7.4 29.4-16.6 66.801-42.4 91.6-65.801 14-11.398 17.201-28.799 7.602-47.199z" />
<glyph unicode="&#xf44d;" glyph-name="flipboard" d="M0 832.004h896v-896h-896v896zM716.8 473.604v179.201h-537.602v-537.602h179.201v179.201h179.199v179.199h179.201z" />
<glyph unicode="&#xf837;" glyph-name="buffer" d="M855.68 134.664l-393-195.641c-3.877-1.664-10.449-3.014-14.67-3.014-4.219 0-10.791 1.35-14.67 3.014l-393.020 195.641c-8 4-8 10.561 0 14.58l94.119 46.76c3.885 1.664 10.465 3.014 14.691 3.014 4.225 0 10.805-1.35 14.689-3.014l269.52-134c3.877-1.674 10.449-3.031 14.67-3.031 4.223 0 10.795 1.357 14.67 3.031l269.52 134c3.881 1.664 10.459 3.016 14.682 3.016s10.799-1.352 14.68-3.016l94.119-46.859c8.1-3.92 8.1-10.48 0-14.48zM855.68 407.724c8.1-4.021 8.1-10.58 0-14.621l-393-195.6c-3.877-1.664-10.449-3.016-14.67-3.016-4.219 0-10.791 1.352-14.67 3.016l-393.020 195.6c-8 4.041-8 10.621 0 14.621l94.119 46.859c3.885 1.664 10.465 3.014 14.691 3.014 4.225 0 10.805-1.35 14.689-3.014l269.52-134.16c3.879-1.656 10.451-3 14.67-3s10.791 1.344 14.67 3l269.52 134.16c3.881 1.664 10.459 3.016 14.682 3.016s10.799-1.352 14.68-3.016zM40.32 635.164c-8.1 3.721-8.1 9.779 0 13.48l393 180.559c3.9 1.549 10.473 2.807 14.67 2.807s10.77-1.258 14.67-2.807l393.020-180.559c8-3.701 8-9.76 0-13.48l-393.020-180.58c-3.904-1.531-10.477-2.775-14.67-2.775s-10.766 1.244-14.67 2.775z" />
</font>
</defs>
</svg>
